<?xml version="1.0" standalone="no"?>
<!DOCTYPE svg PUBLIC "-//W3C//DTD SVG 1.1//EN" "http://www.w3.org/Graphics/SVG/1.1/DTD/svg11.dtd" >
<svg>
<metadata>
Created by FontForge 20090622 at Thu Jul 27 11:35:08 2017
 By deploy user
Copyright 1990-2003 Bitstream Inc. All rights reserved.
</metadata>
<defs>
<font id="Humanist521BT-Roman" horiz-adv-x="1034" >
  <font-face 
    font-family="Humanst521 BT"
    font-weight="400"
    font-stretch="normal"
    units-per-em="2048"
    panose-1="2 11 6 2 2 2 4 2 2 4"
    ascent="1556"
    descent="-492"
    x-height="924"
    cap-height="1399"
    bbox="-342 -483 2841 1960"
    underline-thickness="123"
    underline-position="-170"
    unicode-range="U+0020-U+F002"
  />
<missing-glyph horiz-adv-x="1229" 
d="M102 -362v1806h1024v-1806h-1024zM217 -248h795v1577h-795v-1577z" />
    <glyph glyph-name=".notdef" horiz-adv-x="1229" 
d="M102 -362v1806h1024v-1806h-1024zM217 -248h795v1577h-795v-1577z" />
    <glyph glyph-name=".null" horiz-adv-x="0" 
 />
    <glyph glyph-name="nonmarkingreturn" horiz-adv-x="516" 
 />
    <glyph glyph-name="space" unicode=" " horiz-adv-x="516" 
 />
    <glyph glyph-name="exclam" unicode="!" horiz-adv-x="516" 
d="M131 109q0 54 36 90.5t89 36.5t90 -37t37 -90q0 -54 -36.5 -90.5t-90.5 -36.5q-53 0 -89 36t-36 91zM242 434q-43 106 -73 311.5t-30 425.5q0 131 27.5 190.5t87.5 59.5t88.5 -57t28.5 -180q0 -196 -27 -390.5t-76 -359.5h-26z" />
    <glyph glyph-name="quotedbl" unicode="&#x22;" horiz-adv-x="614" 
d="M524 1436v-555h-139v555h139zM229 1436v-555h-139v555h139z" />
    <glyph glyph-name="numbersign" unicode="#" horiz-adv-x="1575" 
d="M969 858h-260l-93 -264h261zM924 1458l-162 -454h256l164 454h164l-160 -454h301l-51 -146h-303l-93 -262h322l-51 -147h-322l-162 -453h-165l161 453h-258l-162 -453h-165l159 453h-309l53 147h310l92 262h-330l51 146h332l162 454h166z" />
    <glyph glyph-name="dollar" unicode="$" 
d="M457 842l-1 360q-95 -1 -150.5 -47.5t-55.5 -124.5q0 -67 51.5 -113.5t155.5 -74.5zM584 205q93 6 143.5 51t50.5 121q0 73 -50 126.5t-144 82.5v-381zM47 154v262q112 -99 214.5 -151t195.5 -58v428q-200 50 -301 146t-101 235q0 150 109.5 252t292.5 118v152h127v-149
q90 -7 172 -37t157 -84v-221q-95 74 -178 113t-151 42v-397q198 -61 299.5 -165t101.5 -245q0 -166 -102 -265t-299 -124v-225h-127v223h-15q-90 0 -185.5 36t-209.5 114z" />
    <glyph glyph-name="percent" unicode="%" horiz-adv-x="1964" 
d="M1253 391q0 -98 68.5 -165.5t167.5 -67.5q97 0 165 67.5t68 165.5t-68 167t-165 69q-98 0 -167 -69t-69 -167zM1071 391q0 175 121.5 296.5t296.5 121.5q174 0 295 -121.5t121 -296.5q0 -173 -121.5 -294.5t-294.5 -121.5q-175 0 -296.5 121t-121.5 295zM426 -25
l944 1448h168l-948 -1448h-164zM240 1006q0 -99 67.5 -167.5t165.5 -68.5q97 0 165.5 68.5t68.5 167.5q0 97 -68.5 165t-165.5 68q-98 0 -165.5 -67.5t-67.5 -165.5zM57 1004q0 175 120.5 296t295.5 121q174 0 296 -121.5t122 -295.5t-122 -295t-296 -121t-295 120.5
t-121 295.5z" />
    <glyph glyph-name="ampersand" unicode="&#x26;" horiz-adv-x="1335" 
d="M770 340l-235 281q-146 -88 -205.5 -152t-59.5 -129q0 -76 52 -122t139 -46q64 0 137 39.5t172 128.5zM588 852q108 72 153 130.5t45 125.5t-48 110.5t-124 43.5q-72 0 -121 -44t-49 -108q0 -50 37.5 -117.5t106.5 -140.5zM1319 0h-260l-168 201q-105 -117 -213.5 -171.5
t-233.5 -54.5q-174 0 -278.5 97t-104.5 256q0 119 81.5 218t271.5 208q-85 84 -124.5 166.5t-39.5 173.5q0 148 99 238.5t261 90.5t261.5 -87t99.5 -226q0 -115 -62.5 -206.5t-201.5 -180.5l204 -238q40 45 77.5 103t74.5 133h209q-38 -105 -96.5 -200.5t-137.5 -182.5z" />
    <glyph glyph-name="quotesingle" unicode="'" horiz-adv-x="317" 
d="M229 1436v-555h-139v555h139z" />
    <glyph glyph-name="parenleft" unicode="(" horiz-adv-x="645" 
d="M498 -463q-199 232 -293 459.5t-94 474.5q0 243 100.5 474t314.5 476h113q-177 -218 -265.5 -458.5t-88.5 -501.5q0 -229 82 -459.5t247 -464.5h-116z" />
    <glyph glyph-name="parenright" unicode=")" horiz-adv-x="645" 
d="M147 -463h-118q166 236 248.5 466t82.5 458q0 261 -88.5 501.5t-265.5 458.5h111q215 -247 316.5 -477.5t101.5 -472.5q0 -247 -94.5 -474.5t-293.5 -459.5z" />
    <glyph glyph-name="asterisk" unicode="*" horiz-adv-x="905" 
d="M692 1352l99 -99l-283 -217l352 47v-139l-352 47l283 -217l-99 -98l-217 282l47 -352h-139l45 352l-215 -282l-98 98l282 217l-352 -47v139l352 -45l-282 215l98 99l215 -283l-45 352h139l-47 -352z" />
    <glyph glyph-name="plus" unicode="+" horiz-adv-x="1706" 
d="M924 1221v-541h528v-139h-528v-541h-142v541h-528v139h528v541h142z" />
    <glyph glyph-name="comma" unicode="," horiz-adv-x="516" 
d="M221 -18q-45 23 -66.5 53t-21.5 69q0 51 33.5 85t81.5 34q60 0 97.5 -52t37.5 -138q0 -107 -62 -185t-178 -116l-2 37q40 34 60 80t20 106v27z" />
    <glyph glyph-name="hyphen" unicode="-" horiz-adv-x="692" 
d="M84 379v166h524v-166h-524z" />
    <glyph glyph-name="period" unicode="." horiz-adv-x="516" 
d="M137 104q0 51 35 86t86 35t86 -35t35 -86q0 -50 -35 -85t-86 -35t-86 35t-35 85z" />
    <glyph glyph-name="slash" unicode="/" horiz-adv-x="578" 
d="M88 -190h-139l483 1611h143z" />
    <glyph glyph-name="zero" unicode="0" 
d="M258 698q0 -256 67 -394t191 -138t191 138t67 394q0 257 -67 396t-191 139q-123 0 -190.5 -139t-67.5 -396zM57 698q0 334 124.5 528.5t334.5 194.5t334.5 -194.5t124.5 -528.5t-124.5 -528.5t-334.5 -194.5t-334.5 194.5t-124.5 528.5z" />
    <glyph glyph-name="one" unicode="1" 
d="M418 0v1399h198v-1399h-198z" />
    <glyph glyph-name="two" unicode="2" 
d="M70 0q105 156 242.5 330t154.5 198q97 140 144.5 251t47.5 198q0 115 -65 184.5t-174 69.5q-76 0 -154 -43t-160 -129v239q87 64 171 94.5t169 30.5q186 0 300 -117t114 -307q0 -157 -94 -335t-336 -461h528v-203h-888z" />
    <glyph glyph-name="three" unicode="3" 
d="M135 57v213q83 -43 158.5 -64.5t142.5 -21.5q107 0 169.5 60t62.5 164q0 106 -74 163.5t-223 67.5v176q130 0 206 59.5t76 161.5q0 91 -70.5 148t-185.5 57q-44 0 -96 -13.5t-139 -49.5v180q71 33 137.5 49t132.5 16q189 0 303.5 -101.5t114.5 -266.5q0 -98 -43 -176
t-125 -131q95 -47 147 -134t52 -200q0 -195 -124.5 -317t-326.5 -122q-72 0 -143.5 20t-151.5 62z" />
    <glyph glyph-name="four" unicode="4" 
d="M610 0v467h-598v84l705 870h86v-788h155v-166h-155v-467h-193zM610 633l6 422l-335 -422h329z" />
    <glyph glyph-name="five" unicode="5" 
d="M96 70v206q78 -47 156.5 -71.5t155.5 -24.5q131 0 209.5 68t78.5 180q0 127 -95 196.5t-269 69.5q-28 0 -63 -5.5t-79 -16.5l25 727h616v-170h-442l-14 -359h31q226 0 359.5 -119t133.5 -319q0 -197 -138 -327t-349 -130q-70 0 -149 24t-167 71z" />
    <glyph glyph-name="six" unicode="6" 
d="M291 541q-5 -26 -7.5 -47t-2.5 -39q0 -131 68 -211t179 -80q101 0 162.5 63.5t61.5 167.5q0 105 -64 171.5t-164 66.5q-68 0 -125.5 -23t-107.5 -69zM326 756q67 32 125 48.5t106 16.5q172 0 284.5 -118t112.5 -297q0 -187 -124.5 -308t-317.5 -121q-197 0 -316.5 136
t-119.5 360q0 278 145.5 519t427.5 429l109 -137q-180 -124 -284.5 -252t-147.5 -276z" />
    <glyph glyph-name="seven" unicode="7" 
d="M209 43l510 1174h-596v182h893l-635 -1434z" />
    <glyph glyph-name="eight" unicode="8" 
d="M262 723q-77 51 -118.5 131.5t-41.5 179.5q0 171 119 280t305 109q175 0 290.5 -110.5t115.5 -276.5q0 -101 -42.5 -184t-117.5 -129q96 -36 150.5 -122t54.5 -202q0 -181 -131 -302.5t-330 -121.5q-200 0 -330.5 121.5t-130.5 304.5q0 116 55 201.5t152 120.5zM745 1030
q0 95 -62.5 153t-164.5 58q-100 0 -162.5 -58t-62.5 -151q0 -98 64.5 -163.5t156.5 -65.5q101 0 166 63.5t65 163.5zM268 397q0 -101 67.5 -167t172.5 -66q114 0 184 65t70 170q0 102 -66.5 163t-177.5 61t-180.5 -63.5t-69.5 -162.5z" />
    <glyph glyph-name="nine" unicode="9" 
d="M735 858l2 7q11 54 11 79q0 132 -68.5 212.5t-179.5 80.5q-101 0 -162.5 -63.5t-61.5 -167.5q0 -105 63.5 -171.5t162.5 -66.5q69 0 126.5 22t106.5 68zM700 643q-67 -33 -124 -49t-105 -16q-173 0 -286 118t-113 297q0 187 124.5 308.5t317.5 121.5q197 0 316.5 -135.5
t119.5 -359.5q0 -279 -145.5 -521t-427.5 -430l-109 138q178 121 285.5 252.5t146.5 275.5z" />
    <glyph glyph-name="colon" unicode=":" horiz-adv-x="516" 
d="M137 102q0 51 35 86t86 35t86 -35t35 -86q0 -50 -35 -85t-86 -35t-86 35t-35 85zM137 825q0 51 35 85t86 34t86 -34t35 -85q0 -50 -35 -85t-86 -35t-86 35t-35 85z" />
    <glyph glyph-name="semicolon" unicode=";" horiz-adv-x="516" 
d="M137 823q0 51 35 86t86 35t87 -35t36 -86q0 -50 -36 -85.5t-87 -35.5t-86 35.5t-35 85.5zM221 -18q-43 22 -63.5 51.5t-20.5 70.5q0 51 31.5 85t79.5 34q60 0 96.5 -52t36.5 -138q0 -108 -61 -185.5t-177 -115.5l-2 37q40 34 60 80t20 106v27z" />
    <glyph glyph-name="less" unicode="&#x3c;" horiz-adv-x="1706" 
d="M1442 1006l-969 -396l969 -393v-154l-1178 484v129l1178 483v-153z" />
    <glyph glyph-name="equal" unicode="=" horiz-adv-x="1706" 
d="M1452 481v-139h-1198v139h1198zM1452 879v-140h-1198v140h1198z" />
    <glyph glyph-name="greater" unicode="&#x3e;" horiz-adv-x="1706" 
d="M1442 676v-129l-1178 -484v154l971 393l-971 396v153z" />
    <glyph glyph-name="question" unicode="?" horiz-adv-x="641" 
d="M410 106q0 -52 -36.5 -88t-88.5 -36q-53 0 -89 36t-36 88t36 87.5t89 35.5q52 0 88.5 -35.5t36.5 -87.5zM88 1368q51 28 104.5 41.5t110.5 13.5q132 0 217.5 -87t85.5 -222q0 -81 -29.5 -154t-105.5 -169l-66 -80q-122 -144 -122 -222q0 -15 3 -31.5t9 -33.5l-47 -21
q-41 43 -61.5 89.5t-20.5 97.5q0 48 17.5 98t60.5 119q13 22 40 62q99 149 99 225q0 59 -36 95t-95 36q-39 0 -87.5 -18t-115.5 -56z" />
    <glyph glyph-name="at" unicode="@" horiz-adv-x="2048" 
d="M1284 854l57 115h132l-146 -576q-4 -16 -6 -31t-2 -28q0 -46 25.5 -70t74.5 -24q48 0 102.5 26.5t106.5 75.5q80 76 125 186.5t45 233.5q0 259 -190.5 420t-499.5 161q-133 0 -246 -28t-211 -86q-191 -114 -296 -299.5t-105 -409.5q0 -177 61.5 -308t192.5 -230
q100 -77 236.5 -118.5t287.5 -41.5q169 0 328.5 49t292.5 141l55 -82q-148 -111 -314.5 -167t-349.5 -56q-190 0 -348 47t-280 140q-154 118 -230 274t-76 354q0 165 52 313t151 269q146 178 351.5 270t455.5 92q163 0 310 -45t253 -127q130 -100 197.5 -231t67.5 -283
q0 -175 -63.5 -315t-184.5 -236q-68 -54 -149.5 -83t-166.5 -29q-99 0 -149.5 39.5t-50.5 117.5v19q-55 -89 -129 -131.5t-172 -42.5q-153 0 -233.5 85t-80.5 247q0 235 138 394t339 159q85 0 145.5 -37.5t96.5 -112.5zM1190 475l59 236q-17 88 -68.5 136t-129.5 48
q-138 0 -232 -130t-94 -319q0 -105 48.5 -162t137.5 -57q97 0 174.5 69t104.5 179z" />
    <glyph glyph-name="A" unicode="A" horiz-adv-x="1276" 
d="M416 592h436l-221 504zM-45 0l606 1399h146l614 -1399h-207l-180 412h-596l-178 -412h-205z" />
    <glyph glyph-name="B" unicode="B" horiz-adv-x="1186" 
d="M348 616v-434h266q146 0 213.5 51.5t67.5 161.5q0 114 -75.5 167.5t-237.5 53.5h-234zM150 0v1399h409q209 0 322.5 -95t113.5 -270q0 -108 -51 -180t-156 -111q153 -36 236.5 -131t83.5 -231q0 -174 -127.5 -277.5t-345.5 -103.5h-485zM348 799h135q153 0 227 55t74 168
q0 103 -58.5 150t-186.5 47h-191v-420z" />
    <glyph glyph-name="C" unicode="C" horiz-adv-x="1421" 
d="M1341 332v-226q-123 -64 -250.5 -97.5t-252.5 -33.5q-120 0 -229 31.5t-206 93.5q-156 102 -242.5 260.5t-86.5 344.5q0 141 57 273.5t162 231.5q112 106 251 158.5t308 52.5q118 0 234 -27t243 -85v-217q-133 72 -250 106.5t-227 34.5q-245 0 -405 -152.5t-160 -382.5
q0 -227 157.5 -379.5t395.5 -152.5q122 0 247 41t254 125z" />
    <glyph glyph-name="D" unicode="D" horiz-adv-x="1518" 
d="M664 1208h-316v-1018h316q259 0 407 136t148 372q0 237 -148 373.5t-407 136.5zM664 1399q155 0 266.5 -29t204.5 -92q142 -96 219.5 -246.5t77.5 -331.5t-78 -332.5t-219 -246.5q-91 -63 -204 -92t-267 -29h-514v1399h514z" />
    <glyph glyph-name="E" unicode="E" horiz-adv-x="1114" 
d="M150 0v1399h841v-178h-643v-424h625v-181h-625v-436h664v-180h-862z" />
    <glyph glyph-name="F" unicode="F" horiz-adv-x="1030" 
d="M150 0v1399h796v-178h-598v-414h580v-180h-580v-627h-198z" />
    <glyph glyph-name="G" unicode="G" horiz-adv-x="1450" 
d="M1341 686v-592q-138 -60 -261.5 -89.5t-235.5 -29.5q-126 0 -237 31t-204 92q-156 102 -242.5 260.5t-86.5 346.5q0 141 57 273.5t162 231.5q111 107 250 159t311 52q117 0 234.5 -28t240.5 -84v-217q-133 72 -250 106.5t-227 34.5q-245 0 -405 -152.5t-160 -382.5
q0 -227 158 -379.5t397 -152.5q72 0 144 15.5t149 47.5v271h-263v186h469z" />
    <glyph glyph-name="H" unicode="H" horiz-adv-x="1503" 
d="M150 0v1399h198v-602h807v602h199v-1399h-199v608h-807v-608h-198z" />
    <glyph glyph-name="I" unicode="I" horiz-adv-x="512" 
d="M156 0v1399h200v-1399h-200z" />
    <glyph glyph-name="J" unicode="J" horiz-adv-x="516" 
d="M-125 -287h31q149 0 202.5 55.5t53.5 217.5v1413h198v-1362q0 -205 -30 -290t-103 -142q-46 -37 -116 -56.5t-156 -19.5h-35z" />
    <glyph glyph-name="K" unicode="K" horiz-adv-x="1251" 
d="M156 0v1399h200v-629l584 629h252l-608 -656l725 -743h-279l-674 692v-692h-200z" />
    <glyph glyph-name="L" unicode="L" 
d="M156 0v1399h198v-1219h666v-180h-864z" />
    <glyph glyph-name="M" unicode="M" horiz-adv-x="1655" 
d="M150 0v1399h174l503 -588l504 588h174v-1399h-194v1092l-484 -564l-483 564v-1092h-194z" />
    <glyph glyph-name="N" unicode="N" horiz-adv-x="1593" 
d="M150 0v1399h174l921 -1086v1086h199v-1399h-178l-918 1087v-1087h-198z" />
    <glyph glyph-name="O" unicode="O" horiz-adv-x="1640" 
d="M287 698q0 -107 40 -204t115 -172q73 -75 171.5 -115.5t205.5 -40.5q110 0 206.5 39.5t172.5 116.5q75 75 115.5 172t40.5 204t-40 202.5t-118 174.5q-75 77 -172 117.5t-205 40.5q-104 0 -201.5 -41t-175.5 -117q-75 -73 -115 -171t-40 -206zM74 705q0 140 57 272
t162 233q107 103 242 157t284 54q152 0 288.5 -54.5t240.5 -156.5q109 -106 164 -236t55 -282q0 -143 -56.5 -274.5t-160.5 -231.5q-109 -104 -243.5 -157.5t-287.5 -53.5q-149 0 -285.5 55t-240.5 156q-108 105 -163.5 237t-55.5 282z" />
    <glyph glyph-name="P" unicode="P" horiz-adv-x="1110" 
d="M348 780h217q146 0 211.5 52t65.5 167t-65.5 167.5t-211.5 52.5h-217v-439zM150 0v1399h436q219 0 342 -106t123 -294q0 -187 -123 -292t-342 -105h-238v-602h-198z" />
    <glyph glyph-name="Q" unicode="Q" horiz-adv-x="1640" 
d="M287 698q0 -107 40 -204t115 -172q75 -76 173.5 -118t203.5 -42q108 0 204.5 40.5t174.5 119.5q75 75 115.5 172t40.5 204t-40 202.5t-118 174.5q-75 77 -172 117.5t-205 40.5q-104 0 -201.5 -41t-175.5 -117q-75 -73 -115 -171t-40 -206zM635 0q-254 62 -407.5 255
t-153.5 450q0 140 57 272t162 233q107 103 242 157t284 54q152 0 288.5 -54.5t240.5 -156.5q109 -106 164 -236t55 -282q0 -248 -155 -433.5t-425 -258.5q126 -56 222.5 -81t185.5 -25q29 0 63.5 4t75.5 12l8 -21l-190 -165q-10 -2 -19 -2.5t-28 -0.5q-137 0 -307.5 71
t-362.5 208z" />
    <glyph glyph-name="R" unicode="R" horiz-adv-x="1157" 
d="M147 0v1399h410q212 0 327 -100t115 -283q0 -138 -63 -222t-199 -126q35 -19 66 -50.5t80 -105.5l340 -512h-242l-240 367q-108 166 -174.5 212t-158.5 46h-60v-625h-201zM348 793h166q140 0 209.5 54t69.5 165q0 114 -66 165.5t-213 51.5h-166v-436z" />
    <glyph glyph-name="S" unicode="S" horiz-adv-x="944" 
d="M78 109v264q95 -109 181.5 -157t184.5 -48q104 0 164 48.5t60 131.5q0 68 -40.5 119.5t-193.5 148.5q-237 153 -297.5 237t-60.5 200q0 163 115.5 267.5t297.5 104.5q81 0 159.5 -23.5t158.5 -72.5v-227q-92 74 -170 107.5t-156 33.5q-94 0 -153.5 -46.5t-59.5 -119.5
q0 -104 247 -258l30 -18q201 -125 263 -220.5t62 -236.5q0 -160 -116 -264.5t-297 -104.5q-113 0 -204 32t-175 102z" />
    <glyph glyph-name="T" unicode="T" horiz-adv-x="1255" 
d="M528 0v1217h-514v182h1227v-182h-514v-1217h-199z" />
    <glyph glyph-name="U" unicode="U" horiz-adv-x="1489" 
d="M141 1399h199v-803q0 -134 14.5 -190t48.5 -97q62 -73 147 -109t193 -36q182 0 293 94t111 248v893h199v-899q0 -234 -167 -379.5t-436 -145.5q-159 0 -287 56.5t-216 165.5q-54 65 -76.5 145t-22.5 246v811z" />
    <glyph glyph-name="V" unicode="V" horiz-adv-x="1214" 
d="M575 -10l-616 1409h209l436 -998l445 998h206l-628 -1409h-52z" />
    <glyph glyph-name="W" unicode="W" horiz-adv-x="1907" 
d="M483 -10l-518 1409h207l342 -955l377 955h127l373 -957l348 957h203l-527 -1409h-45l-418 1077l-422 -1077h-47z" />
    <glyph glyph-name="X" unicode="X" horiz-adv-x="1470" 
d="M-20 0l643 741l-555 658h247l433 -512l440 512h248l-566 -658l619 -741h-244l-502 598l-518 -598h-245z" />
    <glyph glyph-name="Y" unicode="Y" horiz-adv-x="1194" 
d="M485 0v700l-540 699h237l408 -531l418 531h241l-561 -709v-690h-203z" />
    <glyph glyph-name="Z" unicode="Z" horiz-adv-x="1305" 
d="M14 0l920 1223h-854v176h1200v-23l-903 -1204h903v-172h-1266z" />
    <glyph glyph-name="bracketleft" unicode="[" horiz-adv-x="641" 
d="M174 -428v1827h449v-139h-279v-1549h279v-139h-449z" />
    <glyph glyph-name="backslash" unicode="\" horiz-adv-x="578" 
d="M492 -190l-488 1611h143l482 -1611h-137z" />
    <glyph glyph-name="bracketright" unicode="]" horiz-adv-x="641" 
d="M469 1397v-1827h-449v139h281v1548h-281v140h449z" />
    <glyph glyph-name="asciicircum" unicode="^" horiz-adv-x="2048" 
d="M1116 1458l510 -557h-180l-422 420l-424 -420h-180l510 557h186z" />
    <glyph glyph-name="underscore" unicode="_" horiz-adv-x="1024" 
d="M1024 -340v-143h-1024v143h1024z" />
    <glyph glyph-name="grave" unicode="`" horiz-adv-x="1024" 
d="M649 1055h-106l-281 348h178z" />
    <glyph glyph-name="a" unicode="a" horiz-adv-x="887" 
d="M571 188v271q-186 -58 -256.5 -107t-70.5 -114q0 -57 36.5 -88t102.5 -31q49 0 96 17.5t92 51.5zM578 76q-70 -49 -132.5 -70.5t-134.5 -21.5q-124 0 -194 59.5t-70 163.5q0 98 76 172t229 125l219 73q1 8 1.5 16t0.5 23q0 83 -40.5 119.5t-133.5 36.5q-77 0 -159 -32.5
t-164 -96.5v182q71 58 159 87.5t187 29.5q178 0 259 -78.5t81 -253.5v-391q0 -49 8.5 -69.5t28.5 -20.5q17 0 35.5 9t60.5 42v-112q-50 -43 -101 -63.5t-106 -20.5q-53 0 -79.5 22t-30.5 70z" />
    <glyph glyph-name="b" unicode="b" horiz-adv-x="1059" 
d="M307 186q50 -18 96 -27t91 -9q146 0 226.5 81t80.5 230q0 145 -78 229t-211 84q-53 0 -103.5 -17t-101.5 -52v-519zM121 43v1356h186v-527q52 37 111.5 54.5t132.5 17.5q202 0 324 -131.5t122 -349.5q0 -231 -137 -357t-387 -126q-84 0 -170.5 15.5t-181.5 47.5z" />
    <glyph glyph-name="c" unicode="c" horiz-adv-x="901" 
d="M840 219v-188q-70 -25 -136 -37t-131 -12q-226 0 -371 135.5t-145 345.5q0 205 145 343t363 138q67 0 132 -14t128 -43v-197q-64 39 -126.5 57.5t-127.5 18.5q-142 0 -231.5 -85t-89.5 -218q0 -136 91 -221.5t239 -85.5q68 0 132.5 15.5t127.5 47.5z" />
    <glyph glyph-name="d" unicode="d" horiz-adv-x="1059" 
d="M754 205v520q-45 32 -92 47.5t-101 15.5q-141 0 -222 -86t-81 -237t81 -237.5t222 -86.5q54 0 101 15.5t92 48.5zM754 51q-51 -35 -109.5 -52t-130.5 -17q-200 0 -326.5 134t-126.5 347t126.5 347t326.5 134q70 0 129 -17.5t111 -54.5v527h184v-1399h-184v51z" />
    <glyph glyph-name="e" unicode="e" horiz-adv-x="999" 
d="M928 98q-92 -59 -189.5 -88.5t-201.5 -29.5q-219 0 -349.5 135.5t-130.5 361.5q0 207 125.5 336t327.5 129q200 0 317 -131t117 -354v-27h-692q8 -131 86 -204.5t209 -73.5q88 0 183.5 32.5t197.5 98.5v-185zM252 561h489q-9 101 -73 162t-160 61q-106 0 -171 -56.5
t-85 -166.5z" />
    <glyph glyph-name="f" unicode="f" horiz-adv-x="541" 
d="M350 0h-190v764h-121v160h121v84q0 120 10 174t35 94q40 65 110.5 101t157.5 36q27 0 61.5 -5t86.5 -17v-162q-39 8 -67.5 12t-49.5 4q-84 0 -119 -46.5t-35 -162.5v-112h123v-160h-123v-764z" />
    <glyph glyph-name="g" unicode="g" horiz-adv-x="915" 
d="M172 -172q0 -68 68 -102.5t200 -34.5q129 0 202 34t73 93q0 65 -82.5 98t-247.5 33q-94 0 -153.5 -34.5t-59.5 -86.5zM281 295q-104 32 -158.5 106t-54.5 183q0 168 116 254t344 86h367v-150h-156q38 -41 56 -86.5t18 -101.5q0 -116 -70.5 -198t-189.5 -103
q-26 -5 -70 -12q-149 -23 -149 -76t213 -95l82 -16q134 -28 203 -94t69 -168q0 -141 -117.5 -215t-341.5 -74q-219 0 -334.5 71.5t-115.5 207.5q0 97 67.5 160t198.5 87q-53 24 -77.5 51.5t-24.5 61.5q0 36 30 65t95 56zM442 768q-85 0 -138.5 -49.5t-53.5 -126.5
q0 -81 51 -126.5t141 -45.5q91 0 144 46t53 126q0 77 -55.5 126.5t-141.5 49.5z" />
    <glyph glyph-name="h" unicode="h" horiz-adv-x="1026" 
d="M121 0v1399h184v-588q69 66 137.5 96.5t147.5 30.5q151 0 238 -87t87 -239v-612h-186v565q0 113 -46.5 166t-145.5 53q-73 0 -128 -28t-104 -90v-666h-184z" />
    <glyph glyph-name="i" unicode="i" horiz-adv-x="432" 
d="M111 1196q0 44 30 74t74 30t74 -30t30 -74t-30 -74t-74 -30t-74 30t-30 74zM123 0v924h184v-924h-184z" />
    <glyph glyph-name="j" unicode="j" horiz-adv-x="436" 
d="M2 -334q69 34 97 80.5t28 128.5v1049h186v-1033q0 -146 -46 -227.5t-152 -128.5zM115 1196q0 44 31 74t75 30t74.5 -30t30.5 -74t-30.5 -74t-74.5 -30t-75 30t-31 74z" />
    <glyph glyph-name="k" unicode="k" horiz-adv-x="989" 
d="M938 924l-387 -422l465 -502h-252l-451 492l398 432h227zM123 0v1399h184v-1399h-184z" />
    <glyph glyph-name="l" unicode="l" horiz-adv-x="432" 
d="M123 0v1399h184v-1399h-184z" />
    <glyph glyph-name="m" unicode="m" horiz-adv-x="1626" 
d="M117 0v924h184v-113q69 66 137.5 96.5t147.5 30.5q102 0 170.5 -37.5t115.5 -118.5q85 84 159.5 120t158.5 36q151 0 238.5 -87t87.5 -239v-612h-187v565q0 113 -46.5 166t-145.5 53q-73 0 -127 -27.5t-105 -90.5v-666h-180v565q0 112 -47.5 165.5t-147.5 53.5
q-71 0 -124.5 -27.5t-104.5 -90.5v-666h-184z" />
    <glyph glyph-name="n" unicode="n" horiz-adv-x="1022" 
d="M117 0v924h184v-113q69 66 137.5 96.5t147.5 30.5q150 0 236.5 -87t86.5 -239v-612h-184v565q0 112 -47.5 165.5t-147.5 53.5q-71 0 -124.5 -27.5t-104.5 -90.5v-666h-184z" />
    <glyph glyph-name="o" unicode="o" horiz-adv-x="1096" 
d="M250 463q0 -129 87 -220t210 -91q122 0 209.5 91.5t87.5 219.5q0 127 -87 218t-210 91t-210 -91t-87 -218zM57 463q0 201 143 341t349 140q97 0 185.5 -36.5t158.5 -104.5q71 -72 108 -158t37 -182q0 -95 -38 -185t-107 -157q-70 -69 -157.5 -104t-186.5 -35
q-206 0 -349 140t-143 341z" />
    <glyph glyph-name="p" unicode="p" horiz-adv-x="1059" 
d="M307 721v-518q45 -33 91.5 -48.5t99.5 -15.5q141 0 222 86.5t81 237.5q0 150 -81 235.5t-222 85.5q-53 0 -99.5 -15t-91.5 -48zM121 -465v1389h186v-52q52 37 110 54.5t128 17.5q200 0 326 -134t126 -347t-126 -347t-326 -134q-72 0 -129.5 16.5t-108.5 52.5v-516h-186z
" />
    <glyph glyph-name="q" unicode="q" horiz-adv-x="1059" 
d="M754 201v518q-45 32 -92 47.5t-101 15.5q-141 0 -222 -86t-81 -237q0 -150 81 -236t222 -86q54 0 101 15.5t92 48.5zM754 51q-51 -35 -109.5 -52t-130.5 -17q-200 0 -326.5 134t-126.5 347t126.5 347t326.5 134q70 0 129 -17.5t111 -54.5v52h184v-1389h-184v516z" />
    <glyph glyph-name="r" unicode="r" horiz-adv-x="768" 
d="M119 0v924h184v-201q77 121 138.5 169t133.5 48q50 0 101.5 -22t109.5 -68l-100 -164q-45 39 -86 56.5t-86 17.5q-75 0 -131 -63t-80 -175v-522h-184z" />
    <glyph glyph-name="s" unicode="s" horiz-adv-x="770" 
d="M57 63v197q83 -55 160 -84t141 -29q71 0 111.5 26.5t40.5 72.5q0 58 -151 133q-44 22 -68 35q-129 66 -177 127.5t-48 150.5q0 116 83 184t228 68q78 0 150 -18.5t141 -57.5v-180q-85 47 -155.5 69.5t-133.5 22.5q-58 0 -89.5 -20t-31.5 -58q0 -70 193 -165l17 -8
q151 -76 197 -133.5t46 -145.5q0 -122 -91.5 -195t-242.5 -73q-87 0 -165.5 20t-154.5 61z" />
    <glyph glyph-name="t" unicode="t" horiz-adv-x="659" 
d="M627 29q-43 -24 -92.5 -35.5t-106.5 -11.5q-156 0 -219.5 74t-63.5 270v438h-157v18l323 357h21v-215h289v-160h-289v-424q0 -115 28.5 -148.5t106.5 -33.5q42 0 82 11t78 34v-174z" />
    <glyph glyph-name="u" unicode="u" horiz-adv-x="1022" 
d="M721 113q-69 -66 -137.5 -96.5t-147.5 -30.5q-151 0 -238 87t-87 238v613h186v-566q0 -112 47.5 -165.5t147.5 -53.5q71 0 124.5 27.5t104.5 91.5v666h184v-924h-184v113z" />
    <glyph glyph-name="v" unicode="v" horiz-adv-x="909" 
d="M416 -18l-445 942h205l285 -613l266 613h201l-426 -942h-86z" />
    <glyph glyph-name="w" unicode="w" horiz-adv-x="1532" 
d="M397 -18l-409 942h194l264 -613l254 613h121l258 -611l264 611h195l-412 -942h-90l-274 669l-275 -669h-90z" />
    <glyph glyph-name="x" unicode="x" horiz-adv-x="975" 
d="M-8 0l373 477l-365 447h227l248 -314l244 314h227l-354 -443l389 -481h-223l-277 340l-266 -340h-223z" />
    <glyph glyph-name="y" unicode="y" horiz-adv-x="909" 
d="M360 182l-389 742h205l285 -541l266 541h201l-686 -1389h-201z" />
    <glyph glyph-name="z" unicode="z" horiz-adv-x="903" 
d="M18 0v25l517 729h-496v170h817v-21l-506 -729h514v-174h-846z" />
    <glyph glyph-name="braceleft" unicode="{" horiz-adv-x="1024" 
d="M866 1327h-41q-120 0 -161 -44.5t-41 -184.5v-242q0 -160 -44.5 -228t-156.5 -98q113 -28 157 -96t44 -229v-242q0 -141 41.5 -185t162.5 -44h39v-148h-43q-108 0 -169 11.5t-103 37.5q-55 34 -77.5 97t-22.5 211v245q0 149 -54.5 210t-185.5 61q-7 0 -21.5 -1t-21.5 -1
v149q8 0 23 -1t22 -1q130 0 184 60.5t54 207.5v246q0 148 22.5 210.5t77.5 96.5q45 28 108.5 40t169.5 12h37v-150z" />
    <glyph glyph-name="bar" unicode="|" horiz-adv-x="1024" 
d="M588 1565v-2048h-150v2048h150z" />
    <glyph glyph-name="braceright" unicode="}" horiz-adv-x="1024" 
d="M575 1118v-246q0 -147 54 -207.5t184 -60.5q7 0 22 1t23 1v-149q-7 0 -22 1t-21 1q-132 0 -186 -60.5t-54 -210.5v-245q0 -148 -22.5 -211t-77.5 -97q-42 -26 -103 -37.5t-169 -11.5h-43v148h39q120 0 162 45t42 186v240q0 160 44.5 228t156.5 97q-112 30 -156.5 98
t-44.5 228v242q0 140 -42 184.5t-162 44.5h-39v150h37q107 0 171 -12.5t107 -39.5q55 -34 77.5 -96.5t22.5 -210.5z" />
    <glyph glyph-name="asciitilde" unicode="~" horiz-adv-x="1706" 
d="M1530 614q-104 -72 -199 -106.5t-190 -34.5q-93 0 -256 58q-22 8 -34 12l-15 5q-176 60 -273 60q-84 0 -175 -37t-210 -120v155q106 72 202 108t185 36q62 0 127.5 -13.5t163.5 -48.5q16 -5 47 -17q159 -57 240 -57q88 0 179.5 37t207.5 119v-156z" />
    <glyph glyph-name="Adieresis" unicode="&#xc4;" horiz-adv-x="1276" 
d="M416 592h436l-221 504zM-45 0l606 1399h146l614 -1399h-207l-180 412h-596l-178 -412h-205zM731 1687q0 41 29.5 71t68.5 30q40 0 70.5 -30.5t30.5 -70.5q0 -42 -29 -71t-72 -29q-41 0 -69.5 29t-28.5 71zM350 1687q0 41 29.5 71t69.5 30q39 0 69.5 -30.5t30.5 -70.5
q0 -42 -29 -71t-71 -29t-70.5 29t-28.5 71z" />
    <glyph glyph-name="Aring" unicode="&#xc5;" horiz-adv-x="1276" 
d="M492 1712q0 -60 41.5 -101.5t101.5 -41.5q59 0 100 41.5t41 101.5t-41 101.5t-100 41.5q-61 0 -102 -41t-41 -102zM385 1712q0 105 71.5 176.5t176.5 71.5t177.5 -72t72.5 -176t-72.5 -176t-177.5 -72t-176.5 72t-71.5 176zM416 592h436l-221 504zM-45 0l606 1399h146
l614 -1399h-207l-180 412h-596l-178 -412h-205z" />
    <glyph glyph-name="Ccedilla" unicode="&#xc7;" horiz-adv-x="1421" 
d="M1341 332v-226q-123 -64 -250.5 -97.5t-252.5 -33.5q-120 0 -229 31.5t-206 93.5q-156 102 -242.5 260.5t-86.5 344.5q0 141 57 273.5t162 231.5q112 106 251 158.5t308 52.5q118 0 234 -27t243 -85v-217q-133 72 -250 106.5t-227 34.5q-245 0 -405 -152.5t-160 -382.5
q0 -227 157.5 -379.5t395.5 -152.5q122 0 247 41t254 125zM504 -424v88q79 -18 141.5 -27.5t106.5 -9.5q60 0 90.5 21.5t30.5 62.5q0 52 -33 75.5t-106 23.5q-21 0 -31 -0.5t-21 -1.5v192h72v-106h23q111 0 169 -45t58 -132q0 -89 -64 -135.5t-186 -46.5q-47 0 -108 10
t-142 31z" />
    <glyph glyph-name="Eacute" unicode="&#xc9;" horiz-adv-x="1114" 
d="M150 0v1399h841v-178h-643v-424h625v-181h-625v-436h664v-180h-862zM432 1534l209 348h178l-281 -348h-106z" />
    <glyph glyph-name="Ntilde" unicode="&#xd1;" horiz-adv-x="1593" 
d="M150 0v1399h174l921 -1086v1086h199v-1399h-178l-918 1087v-1087h-198zM1088 1802q-24 -93 -75.5 -143t-123.5 -50q-17 1 -32 3t-34 8l-79 26q-12 4 -25.5 6.5t-27.5 2.5q-35 0 -58.5 -15.5t-38.5 -48.5h-88q22 91 72.5 138.5t126.5 47.5q17 0 32 -2t27 -6l79 -29
q15 -4 31.5 -7t28.5 -3q36 0 60 18.5t37 53.5h88z" />
    <glyph glyph-name="Odieresis" unicode="&#xd6;" horiz-adv-x="1640" 
d="M287 698q0 -107 40 -204t115 -172q73 -75 171.5 -115.5t205.5 -40.5q110 0 206.5 39.5t172.5 116.5q75 75 115.5 172t40.5 204t-40 202.5t-118 174.5q-75 77 -172 117.5t-205 40.5q-104 0 -201.5 -41t-175.5 -117q-75 -73 -115 -171t-40 -206zM74 705q0 140 57 272
t162 233q107 103 242 157t284 54q152 0 288.5 -54.5t240.5 -156.5q109 -106 164 -236t55 -282q0 -143 -56.5 -274.5t-160.5 -231.5q-109 -104 -243.5 -157.5t-287.5 -53.5q-149 0 -285.5 55t-240.5 156q-108 105 -163.5 237t-55.5 282zM913 1687q0 41 29.5 71t68.5 30
q40 0 70.5 -30.5t30.5 -70.5q0 -42 -29 -71t-72 -29q-41 0 -69.5 29t-28.5 71zM532 1687q0 41 29.5 71t69.5 30q39 0 69.5 -30.5t30.5 -70.5q0 -42 -29 -71t-71 -29t-70.5 29t-28.5 71z" />
    <glyph glyph-name="Udieresis" unicode="&#xdc;" horiz-adv-x="1489" 
d="M141 1399h199v-803q0 -134 14.5 -190t48.5 -97q62 -73 147 -109t193 -36q182 0 293 94t111 248v893h199v-899q0 -234 -167 -379.5t-436 -145.5q-159 0 -287 56.5t-216 165.5q-54 65 -76.5 145t-22.5 246v811zM837 1687q0 41 29.5 71t68.5 30q40 0 70.5 -30.5t30.5 -70.5
q0 -42 -29 -71t-72 -29q-41 0 -69.5 29t-28.5 71zM456 1687q0 41 29.5 71t69.5 30q39 0 69.5 -30.5t30.5 -70.5q0 -42 -29 -71t-71 -29t-70.5 29t-28.5 71z" />
    <glyph glyph-name="aacute" unicode="&#xe1;" horiz-adv-x="887" 
d="M571 188v271q-186 -58 -256.5 -107t-70.5 -114q0 -57 36.5 -88t102.5 -31q49 0 96 17.5t92 51.5zM578 76q-70 -49 -132.5 -70.5t-134.5 -21.5q-124 0 -194 59.5t-70 163.5q0 98 76 172t229 125l219 73q1 8 1.5 16t0.5 23q0 83 -40.5 119.5t-133.5 36.5q-77 0 -159 -32.5
t-164 -96.5v182q71 58 159 87.5t187 29.5q178 0 259 -78.5t81 -253.5v-391q0 -49 8.5 -69.5t28.5 -20.5q17 0 35.5 9t60.5 42v-112q-50 -43 -101 -63.5t-106 -20.5q-53 0 -79.5 22t-30.5 70zM297 1055l209 348h178l-281 -348h-106z" />
    <glyph glyph-name="agrave" unicode="&#xe0;" horiz-adv-x="887" 
d="M571 188v271q-186 -58 -256.5 -107t-70.5 -114q0 -57 36.5 -88t102.5 -31q49 0 96 17.5t92 51.5zM578 76q-70 -49 -132.5 -70.5t-134.5 -21.5q-124 0 -194 59.5t-70 163.5q0 98 76 172t229 125l219 73q1 8 1.5 16t0.5 23q0 83 -40.5 119.5t-133.5 36.5q-77 0 -159 -32.5
t-164 -96.5v182q71 58 159 87.5t187 29.5q178 0 259 -78.5t81 -253.5v-391q0 -49 8.5 -69.5t28.5 -20.5q17 0 35.5 9t60.5 42v-112q-50 -43 -101 -63.5t-106 -20.5q-53 0 -79.5 22t-30.5 70zM571 1055h-106l-281 348h178z" />
    <glyph glyph-name="acircumflex" unicode="&#xe2;" horiz-adv-x="887" 
d="M571 188v271q-186 -58 -256.5 -107t-70.5 -114q0 -57 36.5 -88t102.5 -31q49 0 96 17.5t92 51.5zM578 76q-70 -49 -132.5 -70.5t-134.5 -21.5q-124 0 -194 59.5t-70 163.5q0 98 76 172t229 125l219 73q1 8 1.5 16t0.5 23q0 83 -40.5 119.5t-133.5 36.5q-77 0 -159 -32.5
t-164 -96.5v182q71 58 159 87.5t187 29.5q178 0 259 -78.5t81 -253.5v-391q0 -49 8.5 -69.5t28.5 -20.5q17 0 35.5 9t60.5 42v-112q-50 -43 -101 -63.5t-106 -20.5q-53 0 -79.5 22t-30.5 70zM147 1055l197 348h178l197 -348h-107l-178 241l-180 -241h-107z" />
    <glyph glyph-name="adieresis" unicode="&#xe4;" horiz-adv-x="887" 
d="M571 188v271q-186 -58 -256.5 -107t-70.5 -114q0 -57 36.5 -88t102.5 -31q49 0 96 17.5t92 51.5zM578 76q-70 -49 -132.5 -70.5t-134.5 -21.5q-124 0 -194 59.5t-70 163.5q0 98 76 172t229 125l219 73q1 8 1.5 16t0.5 23q0 83 -40.5 119.5t-133.5 36.5q-77 0 -159 -32.5
t-164 -96.5v182q71 58 159 87.5t187 29.5q178 0 259 -78.5t81 -253.5v-391q0 -49 8.5 -69.5t28.5 -20.5q17 0 35.5 9t60.5 42v-112q-50 -43 -101 -63.5t-106 -20.5q-53 0 -79.5 22t-30.5 70zM526 1208q0 41 29.5 71t68.5 30q40 0 70.5 -30.5t30.5 -70.5q0 -42 -29 -71
t-72 -29q-41 0 -69.5 29t-28.5 71zM145 1208q0 41 29.5 71t69.5 30q39 0 69.5 -30.5t30.5 -70.5q0 -42 -29 -71t-71 -29t-70.5 29t-28.5 71z" />
    <glyph glyph-name="atilde" unicode="&#xe3;" horiz-adv-x="887" 
d="M571 188v271q-186 -58 -256.5 -107t-70.5 -114q0 -57 36.5 -88t102.5 -31q49 0 96 17.5t92 51.5zM578 76q-70 -49 -132.5 -70.5t-134.5 -21.5q-124 0 -194 59.5t-70 163.5q0 98 76 172t229 125l219 73q1 8 1.5 16t0.5 23q0 83 -40.5 119.5t-133.5 36.5q-77 0 -159 -32.5
t-164 -96.5v182q71 58 159 87.5t187 29.5q178 0 259 -78.5t81 -253.5v-391q0 -49 8.5 -69.5t28.5 -20.5q17 0 35.5 9t60.5 42v-112q-50 -43 -101 -63.5t-106 -20.5q-53 0 -79.5 22t-30.5 70zM725 1323q-24 -93 -75.5 -143t-123.5 -50q-17 1 -32 3t-34 8l-79 26
q-12 4 -25.5 6.5t-27.5 2.5q-35 0 -58.5 -15.5t-38.5 -48.5h-88q22 91 72.5 138.5t126.5 47.5q17 0 32 -2t27 -6l79 -29q15 -4 31.5 -7t28.5 -3q36 0 60 18.5t37 53.5h88z" />
    <glyph glyph-name="aring" unicode="&#xe5;" horiz-adv-x="887" 
d="M186 1260q0 104 71.5 174.5t176.5 70.5t177.5 -71t72.5 -174q0 -105 -72.5 -176.5t-177.5 -71.5q-104 0 -176 71.5t-72 176.5zM293 1257q0 -59 41.5 -101t101.5 -42t101 41.5t41 101.5q0 61 -41 102.5t-101 41.5q-61 0 -102 -41.5t-41 -102.5zM578 76
q-70 -49 -132.5 -70.5t-134.5 -21.5q-124 0 -194 59.5t-70 163.5q0 98 76 172t229 125l219 73q1 8 1.5 16t0.5 23q0 83 -40.5 119.5t-133.5 36.5q-77 0 -159 -32.5t-164 -96.5v182q71 58 159 87.5t187 29.5q178 0 259 -78.5t81 -253.5v-391q0 -49 8.5 -69.5t28.5 -20.5
q17 0 35.5 9t60.5 42v-112q-50 -43 -101 -63.5t-106 -20.5q-53 0 -79.5 22t-30.5 70zM571 188v271q-186 -58 -256.5 -107t-70.5 -114q0 -57 36.5 -88t102.5 -31q49 0 96 17.5t92 51.5z" />
    <glyph glyph-name="ccedilla" unicode="&#xe7;" horiz-adv-x="901" 
d="M840 219v-188q-70 -25 -136 -37t-131 -12q-226 0 -371 135.5t-145 345.5q0 205 145 343t363 138q67 0 132 -14t128 -43v-197q-64 39 -126.5 57.5t-127.5 18.5q-142 0 -231.5 -85t-89.5 -218q0 -136 91 -221.5t239 -85.5q68 0 132.5 15.5t127.5 47.5zM248 -424v88
q79 -18 141.5 -27.5t106.5 -9.5q60 0 90.5 21.5t30.5 62.5q0 52 -33 75.5t-106 23.5q-21 0 -31 -0.5t-21 -1.5v192h72v-106h23q111 0 169 -45t58 -132q0 -89 -64 -135.5t-186 -46.5q-47 0 -108 10t-142 31z" />
    <glyph glyph-name="eacute" unicode="&#xe9;" horiz-adv-x="999" 
d="M928 98q-92 -59 -189.5 -88.5t-201.5 -29.5q-219 0 -349.5 135.5t-130.5 361.5q0 207 125.5 336t327.5 129q200 0 317 -131t117 -354v-27h-692q8 -131 86 -204.5t209 -73.5q88 0 183.5 32.5t197.5 98.5v-185zM252 561h489q-9 101 -73 162t-160 61q-106 0 -171 -56.5
t-85 -166.5zM363 1055l209 348h178l-281 -348h-106z" />
    <glyph glyph-name="egrave" unicode="&#xe8;" horiz-adv-x="999" 
d="M928 98q-92 -59 -189.5 -88.5t-201.5 -29.5q-219 0 -349.5 135.5t-130.5 361.5q0 207 125.5 336t327.5 129q200 0 317 -131t117 -354v-27h-692q8 -131 86 -204.5t209 -73.5q88 0 183.5 32.5t197.5 98.5v-185zM252 561h489q-9 101 -73 162t-160 61q-106 0 -171 -56.5
t-85 -166.5zM637 1055h-106l-281 348h178z" />
    <glyph glyph-name="ecircumflex" unicode="&#xea;" horiz-adv-x="999" 
d="M928 98q-92 -59 -189.5 -88.5t-201.5 -29.5q-219 0 -349.5 135.5t-130.5 361.5q0 207 125.5 336t327.5 129q200 0 317 -131t117 -354v-27h-692q8 -131 86 -204.5t209 -73.5q88 0 183.5 32.5t197.5 98.5v-185zM252 561h489q-9 101 -73 162t-160 61q-106 0 -171 -56.5
t-85 -166.5zM213 1055l197 348h178l197 -348h-107l-178 241l-180 -241h-107z" />
    <glyph glyph-name="edieresis" unicode="&#xeb;" horiz-adv-x="999" 
d="M928 98q-92 -59 -189.5 -88.5t-201.5 -29.5q-219 0 -349.5 135.5t-130.5 361.5q0 207 125.5 336t327.5 129q200 0 317 -131t117 -354v-27h-692q8 -131 86 -204.5t209 -73.5q88 0 183.5 32.5t197.5 98.5v-185zM252 561h489q-9 101 -73 162t-160 61q-106 0 -171 -56.5
t-85 -166.5zM592 1208q0 41 29.5 71t68.5 30q40 0 70.5 -30.5t30.5 -70.5q0 -42 -29 -71t-72 -29q-41 0 -69.5 29t-28.5 71zM211 1208q0 41 29.5 71t69.5 30q39 0 69.5 -30.5t30.5 -70.5q0 -42 -29 -71t-71 -29t-70.5 29t-28.5 71z" />
    <glyph glyph-name="iacute" unicode="&#xed;" horiz-adv-x="432" 
d="M123 0v924h184v-924h-184zM80 1055l209 348h178l-281 -348h-106z" />
    <glyph glyph-name="igrave" unicode="&#xec;" horiz-adv-x="432" 
d="M123 0v924h184v-924h-184zM354 1055h-106l-281 348h178z" />
    <glyph glyph-name="icircumflex" unicode="&#xee;" horiz-adv-x="432" 
d="M123 0v924h184v-924h-184zM-70 1055l197 348h178l197 -348h-107l-178 241l-180 -241h-107z" />
    <glyph glyph-name="idieresis" unicode="&#xef;" horiz-adv-x="432" 
d="M123 0v924h184v-924h-184zM309 1208q0 41 29.5 71t68.5 30q40 0 70.5 -30.5t30.5 -70.5q0 -42 -29 -71t-72 -29q-41 0 -69.5 29t-28.5 71zM-72 1208q0 41 29.5 71t69.5 30q39 0 69.5 -30.5t30.5 -70.5q0 -42 -29 -71t-71 -29t-70.5 29t-28.5 71z" />
    <glyph glyph-name="ntilde" unicode="&#xf1;" horiz-adv-x="1022" 
d="M117 0v924h184v-113q69 66 137.5 96.5t147.5 30.5q150 0 236.5 -87t86.5 -239v-612h-184v565q0 112 -47.5 165.5t-147.5 53.5q-71 0 -124.5 -27.5t-104.5 -90.5v-666h-184zM803 1323q-24 -93 -75.5 -143t-123.5 -50q-17 1 -32 3t-34 8l-79 26q-12 4 -25.5 6.5t-27.5 2.5
q-35 0 -58.5 -15.5t-38.5 -48.5h-88q22 91 72.5 138.5t126.5 47.5q17 0 32 -2t27 -6l79 -29q15 -4 31.5 -7t28.5 -3q36 0 60 18.5t37 53.5h88z" />
    <glyph glyph-name="oacute" unicode="&#xf3;" horiz-adv-x="1096" 
d="M250 463q0 -129 87 -220t210 -91q122 0 209.5 91.5t87.5 219.5q0 127 -87 218t-210 91t-210 -91t-87 -218zM57 463q0 201 143 341t349 140q97 0 185.5 -36.5t158.5 -104.5q71 -72 108 -158t37 -182q0 -95 -38 -185t-107 -157q-70 -69 -157.5 -104t-186.5 -35
q-206 0 -349 140t-143 341zM412 1055l209 348h178l-281 -348h-106z" />
    <glyph glyph-name="ograve" unicode="&#xf2;" horiz-adv-x="1096" 
d="M250 463q0 -129 87 -220t210 -91q122 0 209.5 91.5t87.5 219.5q0 127 -87 218t-210 91t-210 -91t-87 -218zM57 463q0 201 143 341t349 140q97 0 185.5 -36.5t158.5 -104.5q71 -72 108 -158t37 -182q0 -95 -38 -185t-107 -157q-70 -69 -157.5 -104t-186.5 -35
q-206 0 -349 140t-143 341zM686 1055h-106l-281 348h178z" />
    <glyph glyph-name="ocircumflex" unicode="&#xf4;" horiz-adv-x="1096" 
d="M250 463q0 -129 87 -220t210 -91q122 0 209.5 91.5t87.5 219.5q0 127 -87 218t-210 91t-210 -91t-87 -218zM57 463q0 201 143 341t349 140q97 0 185.5 -36.5t158.5 -104.5q71 -72 108 -158t37 -182q0 -95 -38 -185t-107 -157q-70 -69 -157.5 -104t-186.5 -35
q-206 0 -349 140t-143 341zM262 1055l197 348h178l197 -348h-107l-178 241l-180 -241h-107z" />
    <glyph glyph-name="odieresis" unicode="&#xf6;" horiz-adv-x="1096" 
d="M250 463q0 -129 87 -220t210 -91q122 0 209.5 91.5t87.5 219.5q0 127 -87 218t-210 91t-210 -91t-87 -218zM57 463q0 201 143 341t349 140q97 0 185.5 -36.5t158.5 -104.5q71 -72 108 -158t37 -182q0 -95 -38 -185t-107 -157q-70 -69 -157.5 -104t-186.5 -35
q-206 0 -349 140t-143 341zM641 1208q0 41 29.5 71t68.5 30q40 0 70.5 -30.5t30.5 -70.5q0 -42 -29 -71t-72 -29q-41 0 -69.5 29t-28.5 71zM260 1208q0 41 29.5 71t69.5 30q39 0 69.5 -30.5t30.5 -70.5q0 -42 -29 -71t-71 -29t-70.5 29t-28.5 71z" />
    <glyph glyph-name="otilde" unicode="&#xf5;" horiz-adv-x="1096" 
d="M250 463q0 -129 87 -220t210 -91q122 0 209.5 91.5t87.5 219.5q0 127 -87 218t-210 91t-210 -91t-87 -218zM57 463q0 201 143 341t349 140q97 0 185.5 -36.5t158.5 -104.5q71 -72 108 -158t37 -182q0 -95 -38 -185t-107 -157q-70 -69 -157.5 -104t-186.5 -35
q-206 0 -349 140t-143 341zM840 1323q-24 -93 -75.5 -143t-123.5 -50q-17 1 -32 3t-34 8l-79 26q-12 4 -25.5 6.5t-27.5 2.5q-35 0 -58.5 -15.5t-38.5 -48.5h-88q22 91 72.5 138.5t126.5 47.5q17 0 32 -2t27 -6l79 -29q15 -4 31.5 -7t28.5 -3q36 0 60 18.5t37 53.5h88z" />
    <glyph glyph-name="uacute" unicode="&#xfa;" horiz-adv-x="1022" 
d="M721 113q-69 -66 -137.5 -96.5t-147.5 -30.5q-151 0 -238 87t-87 238v613h186v-566q0 -112 47.5 -165.5t147.5 -53.5q71 0 124.5 27.5t104.5 91.5v666h184v-924h-184v113zM375 1055l209 348h178l-281 -348h-106z" />
    <glyph glyph-name="ugrave" unicode="&#xf9;" horiz-adv-x="1022" 
d="M721 113q-69 -66 -137.5 -96.5t-147.5 -30.5q-151 0 -238 87t-87 238v613h186v-566q0 -112 47.5 -165.5t147.5 -53.5q71 0 124.5 27.5t104.5 91.5v666h184v-924h-184v113zM649 1055h-106l-281 348h178z" />
    <glyph glyph-name="ucircumflex" unicode="&#xfb;" horiz-adv-x="1022" 
d="M721 113q-69 -66 -137.5 -96.5t-147.5 -30.5q-151 0 -238 87t-87 238v613h186v-566q0 -112 47.5 -165.5t147.5 -53.5q71 0 124.5 27.5t104.5 91.5v666h184v-924h-184v113zM225 1055l197 348h178l197 -348h-107l-178 241l-180 -241h-107z" />
    <glyph glyph-name="udieresis" unicode="&#xfc;" horiz-adv-x="1022" 
d="M721 113q-69 -66 -137.5 -96.5t-147.5 -30.5q-151 0 -238 87t-87 238v613h186v-566q0 -112 47.5 -165.5t147.5 -53.5q71 0 124.5 27.5t104.5 91.5v666h184v-924h-184v113zM604 1208q0 41 29.5 71t68.5 30q40 0 70.5 -30.5t30.5 -70.5q0 -42 -29 -71t-72 -29
q-41 0 -69.5 29t-28.5 71zM223 1208q0 41 29.5 71t69.5 30q39 0 69.5 -30.5t30.5 -70.5q0 -42 -29 -71t-71 -29t-70.5 29t-28.5 71z" />
    <glyph glyph-name="dagger" unicode="&#x2020;" 
d="M455 809l-383 -39v203l383 -39l-39 465h205l-43 -465l387 39v-203l-387 39l43 -993h-205z" />
    <glyph glyph-name="degree" unicode="&#xb0;" horiz-adv-x="674" 
d="M530 1169q0 81 -55.5 137t-136.5 56t-138 -56t-57 -137t57 -138.5t138 -57.5t136.5 57.5t55.5 138.5zM338 1456q118 0 202.5 -84.5t84.5 -204.5q0 -119 -84 -202.5t-205 -83.5t-204 83t-83 203t84.5 204.5t204.5 84.5z" />
    <glyph glyph-name="cent" unicode="&#xa2;" 
d="M643 792q-8 2 -16.5 2.5t-26.5 0.5q-130 0 -214.5 -92t-84.5 -232q0 -78 32 -139.5t97 -110.5zM213 -360l152 409q-124 66 -191.5 176.5t-67.5 249.5q0 215 145.5 354.5t373.5 139.5q33 0 49.5 -1t32.5 -3l120 319h111l-131 -346q20 -4 36 -11t31 -18v-198
q-30 18 -62.5 33.5t-66.5 27.5l-217 -584q30 -6 56 -9t49 -3q64 0 128.5 16t127.5 48v-187q-57 -25 -126 -37t-153 -12q-31 0 -67.5 5.5t-75.5 15.5l-145 -385h-109z" />
    <glyph glyph-name="sterling" unicode="&#xa3;" 
d="M68 -12l161 612h-135v180h197q91 319 219 482t287 163q24 0 49 -3t51 -9l96 -188q-33 8 -62 12t-54 4q-140 0 -231.5 -109.5t-151.5 -351.5h149v-180h-211l-102 -391q29 2 56 3t54 1q61 0 173 -19.5t165 -19.5q35 0 81 9.5t110 29.5v-199q-64 -16 -115.5 -24t-95.5 -8
q-42 0 -170 18t-213 18q-54 0 -131 -7.5t-176 -22.5z" />
    <glyph glyph-name="section" unicode="&#xa7;" 
d="M612 379q80 35 115 77t35 101q0 56 -31.5 95.5t-105.5 76.5l-203 107q-81 -36 -116.5 -78t-35.5 -101q0 -55 32.5 -95.5t107.5 -78.5zM178 59q90 -56 171.5 -84t156.5 -28q76 0 120 31.5t44 87.5q0 49 -43 91t-162 101l-35 18q-348 174 -348 361q0 93 53 160.5t162 113.5
q-62 42 -93.5 99t-31.5 127q0 132 95 209t259 77q88 0 163 -18t142 -55v-181q-85 49 -158.5 73t-135.5 24q-82 0 -126 -32.5t-44 -90.5q0 -85 243 -209l33 -16q183 -92 245 -165.5t62 -177.5q0 -93 -53 -160t-164 -112q64 -45 95.5 -102t31.5 -125q0 -134 -94.5 -210.5
t-259.5 -76.5q-88 0 -169 21.5t-159 64.5v184z" />
    <glyph glyph-name="bullet" unicode="&#x2022;" horiz-adv-x="1208" 
d="M307 762q0 123 87 209t210 86q122 0 208.5 -86.5t86.5 -208.5t-87.5 -209.5t-209.5 -87.5q-123 0 -209 87t-86 210z" />
    <glyph glyph-name="paragraph" unicode="&#xb6;" horiz-adv-x="1024" 
d="M958 1393h-120v-1393h-111v1393h-176v-1393h-113v782q-170 8 -271 102.5t-101 245.5q0 157 107.5 253t285.5 96h499v-86z" />
    <glyph glyph-name="germandbls" unicode="&#xdf;" horiz-adv-x="1028" 
d="M303 0h-188v1040q0 183 103 282t292 99q172 0 276.5 -90.5t104.5 -238.5q0 -113 -46.5 -192t-137.5 -122q128 -52 188.5 -139.5t60.5 -218.5q0 -207 -104 -323.5t-289 -116.5q-24 0 -51 2.5t-59 7.5v184q31 -9 58.5 -13.5t47.5 -4.5q92 0 147.5 68t55.5 182
q0 141 -71 209.5t-224 74.5v158h6q112 0 173 54.5t61 154.5q0 99 -58 160t-151 61q-86 0 -140.5 -56t-54.5 -145v-1077z" />
    <glyph glyph-name="registered" unicode="&#xae;" horiz-adv-x="1706" 
d="M844 1057h-129v-277h133q113 0 162 31.5t49 101.5q0 76 -51 110t-164 34zM872 1159q174 0 261.5 -57.5t87.5 -171.5q0 -89 -50 -148t-141 -77l187 -381h-177l-170 356h-155v-356h-158v835h315zM1493 721q0 134 -46.5 251t-135.5 206q-92 93 -208.5 141.5t-248.5 48.5
q-130 0 -245 -47t-201 -135q-94 -95 -144.5 -214t-50.5 -245q0 -125 48.5 -240.5t139.5 -207.5q90 -92 206.5 -141.5t240.5 -49.5q130 0 246.5 48t212.5 140q90 88 138 202.5t48 242.5zM852 1464q151 0 286 -56t240 -163q103 -104 158 -238t55 -280q0 -151 -55 -283.5
t-160 -234.5q-109 -106 -244.5 -162.5t-279.5 -56.5q-147 0 -280.5 56.5t-239.5 164.5q-105 106 -160 238.5t-55 277.5q0 146 57.5 282.5t165.5 245.5q101 103 231.5 156t280.5 53z" />
    <glyph glyph-name="copyright" unicode="&#xa9;" horiz-adv-x="1706" 
d="M1053 907q-13 77 -66 118.5t-139 41.5q-105 0 -165 -90.5t-60 -249.5q0 -157 62 -244.5t173 -87.5q82 0 136.5 47t68.5 129h145q-9 -130 -107.5 -211t-248.5 -81q-182 0 -285.5 120t-103.5 334q0 200 109 322.5t286 122.5q142 0 236.5 -75t105.5 -196h-147zM1493 727
q0 130 -47.5 246.5t-136.5 206.5q-93 92 -209 140t-246 48q-129 0 -243.5 -47t-204.5 -137q-93 -93 -143 -211.5t-50 -245.5q0 -126 49 -242t141 -209q92 -91 207.5 -139.5t243.5 -48.5q125 0 242 49t213 142q90 88 137 202.5t47 245.5zM852 1464q152 0 285.5 -54.5
t238.5 -160.5q104 -103 159.5 -238.5t55.5 -283.5q0 -149 -54.5 -281.5t-158.5 -234.5q-110 -107 -245.5 -164t-280.5 -57t-278.5 56t-239.5 163q-106 105 -161.5 238.5t-55.5 279.5q0 147 56 281.5t163 242.5q104 104 236 158.5t280 54.5z" />
    <glyph glyph-name="trademark" unicode="&#x2122;" horiz-adv-x="1706" 
d="M963 1458l151 -385l141 385h150v-538h-98v444l-166 -444h-56l-174 444v-444h-98v538h150zM694 1458v-80h-172v-458h-108v458h-172v80h452z" />
    <glyph glyph-name="acute" unicode="&#xb4;" horiz-adv-x="1024" 
d="M375 1055l209 348h178l-281 -348h-106z" />
    <glyph glyph-name="dieresis" unicode="&#xa8;" horiz-adv-x="1024" 
d="M604 1208q0 41 29.5 71t68.5 30q40 0 70.5 -30.5t30.5 -70.5q0 -42 -29 -71t-72 -29q-41 0 -69.5 29t-28.5 71zM223 1208q0 41 29.5 71t69.5 30q39 0 69.5 -30.5t30.5 -70.5q0 -42 -29 -71t-71 -29t-70.5 29t-28.5 71z" />
    <glyph glyph-name="notequal" unicode="&#x2260;" horiz-adv-x="1706" 
d="M1313 1112l-187 -235h326v-136h-416l-205 -262h621v-135h-709l-249 -317l-105 84l184 233h-319v135h408l204 262h-612v136h702l252 317z" />
    <glyph glyph-name="AE" unicode="&#xc6;" horiz-adv-x="1880" 
d="M905 0v403h-553l-268 -403h-217l928 1399h964v-180h-649v-422h629v-181h-629v-436h668v-180h-873zM905 1219h-10l-414 -627h424v627z" />
    <glyph glyph-name="Oslash" unicode="&#xd8;" horiz-adv-x="1640" 
d="M383 395l762 719q-68 58 -151 88.5t-175 30.5q-104 0 -201.5 -41t-175.5 -117q-74 -73 -114.5 -171.5t-40.5 -205.5q0 -89 23 -162t73 -141zM1247 1012l-762 -725q71 -61 153.5 -91t180.5 -30q227 0 381 156.5t154 390.5q0 87 -26 160.5t-81 138.5zM39 63l197 193
q-82 87 -122 196t-40 240q0 149 55.5 281.5t163.5 236.5q106 104 239.5 158.5t278.5 54.5q138 0 262 -43t221 -123l181 173l106 -105l-182 -174q86 -95 128 -204t42 -236q0 -153 -55.5 -285.5t-163.5 -239.5q-106 -104 -238 -157.5t-285 -53.5q-136 0 -257.5 42.5
t-231.5 127.5l-195 -186z" />
    <glyph glyph-name="infinity" unicode="&#x221e;" horiz-adv-x="1706" 
d="M915 559q49 -88 116 -133t151 -45q101 0 165 67.5t64 172.5q0 101 -59 168t-148 67q-82 0 -148.5 -67.5t-140.5 -229.5zM793 666q-49 88 -115.5 132t-151.5 44q-102 0 -165.5 -66t-63.5 -172q0 -101 59 -168t148 -67q82 0 149 68t140 229zM864 483
q-70 -135 -148.5 -198.5t-172.5 -63.5q-136 0 -229 111.5t-93 277.5q0 175 83.5 283t217.5 108q95 0 171.5 -63t148.5 -201q68 138 147 203.5t176 65.5q134 0 228 -112.5t94 -279.5q0 -175 -83.5 -282t-217.5 -107q-94 0 -168.5 59.5t-153.5 198.5z" />
    <glyph glyph-name="plusminus" unicode="&#xb1;" horiz-adv-x="1706" 
d="M1452 170v-141h-1198v141h1198zM924 1192v-340h528v-139h-528v-340h-142v340h-528v139h528v340h142z" />
    <glyph glyph-name="lessequal" unicode="&#x2264;" horiz-adv-x="1706" 
d="M1446 162v-139h-1184v139h1184zM1444 1059l-936 -309l936 -306v-149l-1182 395v121l1182 395v-147z" />
    <glyph glyph-name="greaterequal" unicode="&#x2265;" horiz-adv-x="1706" 
d="M1446 162v-139h-1184v139h1184zM1446 811v-121l-1184 -395v149l938 306l-938 309v147z" />
    <glyph glyph-name="yen" unicode="&#xa5;" horiz-adv-x="1159" 
d="M481 0v614h-434v109h418l-123 166h-295v108h215l-301 402h219l404 -547l407 547h226l-304 -400h199v-110h-283l-124 -166h407v-109h-436v-614h-195z" />
    <glyph glyph-name="mu" unicode="&#xb5;" horiz-adv-x="1151" 
d="M385 1071l-129 -600q-7 -32 -10.5 -64.5t-3.5 -68.5q0 -99 52 -153t148 -54q132 0 208.5 92.5t123.5 311.5l115 536h178l-156 -732q-1 -6 -4 -20q-18 -87 -18 -112q0 -37 16.5 -52.5t55.5 -15.5q12 0 18.5 0.5t13.5 1.5l-31 -143q-24 -5 -50 -7.5t-58 -2.5q-63 0 -97 29
t-52 100q-45 -66 -112.5 -98.5t-158.5 -32.5q-82 0 -143 27.5t-113 88.5l-110 -530h-181l318 1499h180z" />
    <glyph glyph-name="partialdiff" unicode="&#x2202;" horiz-adv-x="1059" 
d="M756 621q15 87 22.5 168.5t7.5 156.5q0 129 -36.5 194.5t-108.5 65.5q-55 0 -127 -58t-108 -58t-60 22t-24 53q0 62 72 111t173 49q180 0 287 -155t107 -418q0 -335 -144.5 -556t-357.5 -221q-152 0 -253.5 108t-101.5 271q0 198 110.5 326.5t272.5 128.5
q101 0 166 -45.5t103 -142.5zM707 494q0 116 -43.5 178.5t-122.5 62.5q-109 0 -179.5 -129t-70.5 -336q0 -116 43 -177.5t123 -61.5q109 0 179.5 130t70.5 333z" />
    <glyph glyph-name="summation" unicode="&#x2211;" horiz-adv-x="1380" 
d="M55 1473h1258v-193h-959l672 -717l-694 -764h1007v-192h-1314v149l725 801l-695 739v177z" />
    <glyph glyph-name="product" unicode="&#x220f;" horiz-adv-x="1550" 
d="M156 1473h1237v-1866h-240v1661h-758v-1661h-239v1866z" />
    <glyph glyph-name="pi" unicode="&#x3c0;" horiz-adv-x="1206" 
d="M1159 913h-182l-105 -487q-15 -74 -22.5 -120t-7.5 -68q0 -58 23.5 -82.5t78.5 -24.5q17 0 40 2.5t60 7.5l-30 -141q-30 -8 -57.5 -12t-53.5 -4q-118 0 -178.5 51t-60.5 151q0 46 10.5 118t44.5 233l80 376h-326l-194 -913h-181l195 913h-41q-54 0 -84 -32t-39 -101h-160
q28 166 99.5 228.5t236.5 62.5h889z" />
    <glyph glyph-name="integral" unicode="&#x222b;" horiz-adv-x="1067" 
d="M311 -262q106 0 120 688l3 165q12 515 107 737t297 222q80 0 130 -42t50 -107q0 -54 -32 -85.5t-87 -31.5q-42 0 -70 19t-40 54q-6 15 -10.5 51t-20.5 36q-107 0 -121 -619q-4 -193 -8 -303q-17 -479 -111.5 -686t-290.5 -207q-79 0 -129.5 41.5t-50.5 106.5
q0 56 34 87.5t95 31.5q33 0 57 -14.5t39 -42.5q10 -18 15 -59.5t24 -41.5z" />
    <glyph glyph-name="ordfeminine" unicode="&#xaa;" horiz-adv-x="666" 
d="M428 883v190q-140 -40 -193 -74.5t-53 -80.5q0 -40 27.5 -61t77.5 -21q38 0 73.5 11.5t67.5 35.5zM434 805q-52 -35 -99.5 -50.5t-101.5 -15.5q-92 0 -145 42.5t-53 115.5q0 68 57 119.5t172 87.5l164 51q1 5 1.5 11.5t0.5 17.5q0 57 -30.5 82.5t-100.5 25.5
q-57 0 -119 -23t-123 -67v127q53 41 119 61.5t141 20.5q133 0 193.5 -55t60.5 -176v-275q0 -34 7 -48.5t22 -14.5q14 0 28.5 7t43.5 30v-80q-40 -30 -78.5 -45t-77.5 -15t-59 16.5t-23 49.5z" />
    <glyph glyph-name="ordmasculine" unicode="&#xba;" horiz-adv-x="821" 
d="M188 1075q0 -90 64.5 -153.5t157.5 -63.5q92 0 157.5 64t65.5 153t-65.5 153t-157.5 64t-157 -63.5t-65 -153.5zM43 1075q0 141 107 239.5t262 98.5q72 0 138 -25.5t120 -74.5q53 -49 80.5 -109.5t27.5 -128.5q0 -67 -28.5 -129.5t-79.5 -109.5q-52 -47 -118 -72
t-140 -25q-154 0 -261.5 98t-107.5 238z" />
    <glyph glyph-name="Omega" unicode="&#x3a9;" horiz-adv-x="1565" 
d="M1487 178v-178h-600v178q177 97 276 263t99 368q0 240 -132 385t-348 145t-348.5 -145.5t-132.5 -384.5q0 -202 99.5 -368t277.5 -263v-178h-600v178h319q-158 139 -230.5 288t-72.5 333q0 318 191.5 515t496.5 197q303 0 495.5 -196.5t192.5 -505.5q0 -194 -71 -342
t-232 -289h320z" />
    <glyph glyph-name="ae" unicode="&#xe6;" horiz-adv-x="1528" 
d="M688 137q-109 -83 -199 -121.5t-176 -38.5q-119 0 -191.5 64t-72.5 168q0 136 127 222.5t395 131.5q1 8 1.5 18t0.5 27q0 86 -38.5 125t-124.5 39q-85 0 -168 -32t-166 -97v182q72 58 166 89.5t196 31.5q92 0 161 -31t120 -94q66 67 140.5 96t176.5 29q200 0 317 -131
t117 -356v-27h-692q8 -131 87 -205.5t210 -74.5q85 0 175.5 31t203.5 102v-187q-94 -61 -191.5 -91t-203.5 -30q-116 0 -205 38.5t-166 121.5zM571 188v254q-166 -28 -246.5 -78.5t-80.5 -125.5q0 -57 36.5 -88t102.5 -31q49 0 96 17.5t92 51.5zM778 565h491q-9 101 -74 162
t-161 61q-105 0 -170.5 -56.5t-85.5 -166.5z" />
    <glyph glyph-name="oslash" unicode="&#xf8;" horiz-adv-x="1096" 
d="M160 166q-51 65 -77 139.5t-26 157.5q0 203 142 341t352 138q89 0 167 -26.5t132 -73.5l115 110l90 -94l-115 -113q51 -64 74.5 -130t23.5 -142q0 -211 -144 -351t-362 -140q-80 0 -147 22.5t-129 71.5l-123 -119l-92 98zM297 297l426 410q-35 33 -78.5 49t-97.5 16
q-122 0 -210.5 -93t-88.5 -218q0 -49 12 -88.5t37 -75.5zM801 614l-420 -403q38 -30 77 -44.5t83 -14.5q128 0 218.5 95.5t90.5 227.5q0 38 -12 72.5t-37 66.5z" />
    <glyph glyph-name="questiondown" unicode="&#xbf;" horiz-adv-x="641" 
d="M553 35q-51 -28 -104.5 -41.5t-110.5 -13.5q-132 0 -217.5 87t-85.5 222q0 81 29.5 154t105.5 169l64 78q124 148 124 225q0 16 -3 31.5t-9 32.5l47 20q41 -42 61.5 -88.5t20.5 -97.5q0 -49 -17.5 -98.5t-60.5 -118.5q-13 -22 -40 -62q-99 -149 -99 -225q0 -59 36 -95
t95 -36q40 0 89 18t114 56zM231 1298q0 52 36.5 87.5t88.5 35.5q53 0 89 -35.5t36 -87.5t-36 -88t-89 -36q-52 0 -88.5 36t-36.5 88z" />
    <glyph glyph-name="exclamdown" unicode="&#xa1;" horiz-adv-x="516" 
d="M131 1294q0 54 36 90.5t89 36.5q54 0 90.5 -36.5t36.5 -90.5q0 -52 -37 -88.5t-90 -36.5q-54 0 -89.5 36t-35.5 89zM242 969h26q49 -165 76 -359.5t27 -390.5q0 -123 -28.5 -180t-88.5 -57t-87.5 59.5t-27.5 189.5q0 221 30 426.5t73 311.5z" />
    <glyph glyph-name="logicalnot" unicode="&#xac;" horiz-adv-x="1706" 
d="M1452 860v-502h-137v363h-1061v139h1198z" />
    <glyph glyph-name="radical" unicode="&#x221a;" horiz-adv-x="1305" 
d="M1116 1661h189v-96h-115l-594 -1606h-66l-319 883l-125 -45l-25 80l283 98l256 -709z" />
    <glyph glyph-name="florin" unicode="&#x192;" 
d="M-2 -393l33 186q29 -9 46.5 -12.5t31.5 -3.5q77 0 116.5 59t65.5 230l100 669h-170l27 170h168l24 158q29 182 110.5 269t223.5 87q26 0 57.5 -6t75.5 -20l-28 -193q-22 10 -43.5 15.5t-42.5 5.5q-71 0 -105.5 -43t-54.5 -168l-17 -105h183l-27 -178h-182l-109 -735
q-34 -237 -111.5 -324.5t-236.5 -87.5q-36 0 -69.5 6.5t-65.5 20.5z" />
    <glyph glyph-name="approxequal" unicode="&#x2248;" horiz-adv-x="1706" 
d="M1530 430q-105 -73 -199.5 -107t-189.5 -34t-285 67.5t-293 67.5q-82 0 -171.5 -36t-213.5 -122v156q108 73 204 109t183 36q115 0 305 -68.5t273 -68.5q88 0 177 35.5t210 120.5v-156zM1530 799q-105 -73 -199.5 -107.5t-189.5 -34.5t-285 68t-293 68q-83 0 -171.5 -36
t-213.5 -122v156q106 72 202 107.5t185 35.5q116 0 305.5 -67.5t272.5 -67.5q87 0 175 34.5t212 120.5v-155z" />
    <glyph glyph-name="Delta" unicode="&#x2206;" horiz-adv-x="1370" 
d="M684 1262l-418 -1084h836zM573 1473h224l579 -1473h-1382z" />
    <glyph glyph-name="guillemotleft" unicode="&#xab;" horiz-adv-x="870" 
d="M649 780h158l-236 -317l236 -301h-158l-241 301zM303 780h158l-236 -317l236 -301h-158l-240 301z" />
    <glyph glyph-name="guillemotright" unicode="&#xbb;" horiz-adv-x="870" 
d="M219 780l242 -317l-242 -301h-156l234 301l-234 317h156zM565 780l240 -317l-240 -301h-157l235 301l-235 317h157z" />
    <glyph glyph-name="ellipsis" unicode="&#x2026;" horiz-adv-x="2048" 
d="M221 104q0 51 35 86t86 35t86 -35t35 -86q0 -50 -35 -85t-86 -35t-86 35t-35 85zM903 104q0 51 35 86t86 35t86 -35t35 -86q0 -50 -35 -85t-86 -35t-86 35t-35 85zM1587 104q0 51 35 86t86 35t86 -35t35 -86q0 -50 -35 -85t-86 -35t-86 35t-35 85z" />
    <glyph glyph-name="nonbreakingspace" unicode="&#xa0;" 
 />
    <glyph glyph-name="Agrave" unicode="&#xc0;" horiz-adv-x="1276" 
d="M416 592h436l-221 504zM-45 0l606 1399h146l614 -1399h-207l-180 412h-596l-178 -412h-205zM776 1534h-106l-281 348h178z" />
    <glyph glyph-name="Atilde" unicode="&#xc3;" horiz-adv-x="1276" 
d="M416 592h436l-221 504zM-45 0l606 1399h146l614 -1399h-207l-180 412h-596l-178 -412h-205zM930 1802q-24 -93 -75.5 -143t-123.5 -50q-17 1 -32 3t-34 8l-79 26q-12 4 -25.5 6.5t-27.5 2.5q-35 0 -58.5 -15.5t-38.5 -48.5h-88q22 91 72.5 138.5t126.5 47.5q17 0 32 -2
t27 -6l79 -29q15 -4 31.5 -7t28.5 -3q36 0 60 18.5t37 53.5h88z" />
    <glyph glyph-name="Otilde" unicode="&#xd5;" horiz-adv-x="1640" 
d="M287 698q0 -107 40 -204t115 -172q73 -75 171.5 -115.5t205.5 -40.5q110 0 206.5 39.5t172.5 116.5q75 75 115.5 172t40.5 204t-40 202.5t-118 174.5q-75 77 -172 117.5t-205 40.5q-104 0 -201.5 -41t-175.5 -117q-75 -73 -115 -171t-40 -206zM74 705q0 140 57 272
t162 233q107 103 242 157t284 54q152 0 288.5 -54.5t240.5 -156.5q109 -106 164 -236t55 -282q0 -143 -56.5 -274.5t-160.5 -231.5q-109 -104 -243.5 -157.5t-287.5 -53.5q-149 0 -285.5 55t-240.5 156q-108 105 -163.5 237t-55.5 282zM1112 1802q-24 -93 -75.5 -143
t-123.5 -50q-17 1 -32 3t-34 8l-79 26q-12 4 -25.5 6.5t-27.5 2.5q-35 0 -58.5 -15.5t-38.5 -48.5h-88q22 91 72.5 138.5t126.5 47.5q17 0 32 -2t27 -6l79 -29q15 -4 31.5 -7t28.5 -3q36 0 60 18.5t37 53.5h88z" />
    <glyph glyph-name="OE" unicode="&#x152;" horiz-adv-x="2017" 
d="M1053 180v1043h-88q-166 0 -262 -16.5t-162 -53.5q-111 -63 -172.5 -180.5t-61.5 -270.5q0 -152 61.5 -271t172.5 -181q66 -37 162 -53.5t262 -16.5h88zM1004 0h-72q-220 0 -327.5 22.5t-194.5 73.5q-150 89 -231 245t-81 357q0 202 81 358.5t231 246.5q86 51 193 73.5
t327 22.5h74h890v-178h-645v-424h627v-181h-627v-436h666v-180h-911z" />
    <glyph glyph-name="oe" unicode="&#x153;" horiz-adv-x="1788" 
d="M250 463q0 -129 86.5 -219t210.5 -90q123 0 210 90.5t87 218.5q0 127 -87 216t-210 89q-124 0 -210.5 -89t-86.5 -216zM1714 98q-88 -58 -186.5 -87t-208.5 -29q-129 0 -220 44t-165 142q-85 -96 -178.5 -141t-204.5 -45q-208 0 -351 139.5t-143 341.5q0 201 144 341
t352 140q119 0 214.5 -46t162.5 -136q65 94 153.5 138t212.5 44q203 0 319 -129.5t116 -359.5v-23h-693q8 -131 87 -204.5t210 -73.5q87 0 180.5 32t198.5 99v-187zM1038 565l492 1q-9 99 -74 160.5t-162 61.5q-105 0 -170.5 -56.5t-85.5 -166.5z" />
    <glyph glyph-name="endash" unicode="&#x2013;" horiz-adv-x="1024" 
d="M1024 524v-123h-1024v123h1024z" />
    <glyph glyph-name="emdash" unicode="&#x2014;" horiz-adv-x="2048" 
d="M0 401v123h2048v-123h-2048z" />
    <glyph glyph-name="quotedblleft" unicode="&#x201c;" horiz-adv-x="881" 
d="M674 1171q45 -23 66.5 -53t21.5 -69q0 -51 -32.5 -85t-80.5 -34q-61 0 -99 51.5t-38 136.5q0 108 62 186.5t178 116.5l2 -37q-40 -33 -60 -79.5t-20 -106.5v-27zM279 1171q45 -23 66.5 -53t21.5 -69q0 -51 -32.5 -85t-80.5 -34q-61 0 -99 51.5t-38 136.5q0 108 62 186.5
t177 116.5l2 -37q-40 -33 -59.5 -79.5t-19.5 -106.5v-27z" />
    <glyph glyph-name="quotedblright" unicode="&#x201d;" horiz-adv-x="881" 
d="M600 1178q-44 23 -66 53.5t-22 71.5q0 50 33.5 84t81.5 34q60 0 97.5 -52t37.5 -138q0 -107 -62 -185t-178 -116l-2 37q41 34 60.5 79.5t19.5 104.5v27zM205 1178q-45 23 -66.5 53.5t-21.5 71.5q0 50 32.5 84t79.5 34q61 0 99.5 -52.5t38.5 -137.5q0 -107 -62 -185
t-178 -116l-2 37q40 34 60 79.5t20 104.5v27z" />
    <glyph glyph-name="quoteleft" unicode="&#x2018;" horiz-adv-x="483" 
d="M279 1174q44 -23 66 -54t22 -71q0 -51 -32.5 -85t-80.5 -34q-61 0 -99 52.5t-38 137.5q0 107 62 185t177 116l2 -37q-40 -34 -59.5 -79.5t-19.5 -104.5v-26z" />
    <glyph glyph-name="quoteright" unicode="&#x2019;" horiz-adv-x="483" 
d="M205 1180q-45 23 -66.5 54t-21.5 71q0 50 32.5 84t79.5 34q61 0 99.5 -52t38.5 -138q0 -108 -62.5 -186.5t-177.5 -116.5l-2 37q40 34 60 80t20 106v27z" />
    <glyph glyph-name="divide" unicode="&#xf7;" horiz-adv-x="1706" 
d="M854 367q51 0 88 -37t37 -88q0 -52 -36.5 -88.5t-88.5 -36.5q-53 0 -89 36t-36 89q0 51 37 88t88 37zM1452 680v-139h-1198v139h1198zM854 1106q51 0 88 -37.5t37 -89.5q0 -51 -36.5 -88t-88.5 -37t-88.5 36.5t-36.5 88.5t37 89.5t88 37.5z" />
    <glyph glyph-name="lozenge" unicode="&#x25ca;" horiz-adv-x="1012" 
d="M506 1409l-385 -817l385 -825l385 825zM506 1653l500 -1061l-500 -1069l-500 1069z" />
    <glyph glyph-name="ydieresis" unicode="&#xff;" horiz-adv-x="909" 
d="M360 182l-389 742h205l285 -541l266 541h201l-686 -1389h-201zM547 1208q0 41 29.5 71t68.5 30q40 0 70.5 -30.5t30.5 -70.5q0 -42 -29 -71t-72 -29q-41 0 -69.5 29t-28.5 71zM166 1208q0 41 29.5 71t69.5 30q39 0 69.5 -30.5t30.5 -70.5q0 -42 -29 -71t-71 -29t-70.5 29
t-28.5 71z" />
    <glyph glyph-name="Ydieresis" unicode="&#x178;" horiz-adv-x="1194" 
d="M485 0v700l-540 699h237l408 -531l418 531h241l-561 -709v-690h-203zM690 1687q0 41 29.5 71t68.5 30q40 0 70.5 -30.5t30.5 -70.5q0 -42 -29 -71t-72 -29q-41 0 -69.5 29t-28.5 71zM309 1687q0 41 29.5 71t69.5 30q39 0 69.5 -30.5t30.5 -70.5q0 -42 -29 -71t-71 -29
t-70.5 29t-28.5 71z" />
    <glyph glyph-name="fraction" unicode="&#x2215;" horiz-adv-x="350" 
d="M-190 -25h-152l872 1446h152z" />
    <glyph glyph-name="currency" unicode="&#xa4;" 
d="M987 74q-59 -46 -151.5 -72.5t-184.5 -26.5q-182 0 -311 145.5t-164 391.5h-166l37 111h117q-1 12 -1.5 27.5t-0.5 47.5q0 16 1 45t1 43h-154l37 111h131q38 240 175 382t331 142q86 0 164 -20t131 -55v-218q-54 49 -135 79t-162 30q-119 0 -198 -88t-107 -252h538
l-36 -111h-514q-2 -15 -2.5 -33t-0.5 -55q0 -32 0.5 -47t2.5 -28h460l-37 -111h-413q27 -172 102 -259t197 -87q91 0 166.5 32.5t146.5 100.5v-225z" />
    <glyph glyph-name="guilsinglleft" unicode="&#x2039;" horiz-adv-x="526" 
d="M303 162l-240 317l240 301h158l-234 -301l234 -317h-158z" />
    <glyph glyph-name="guilsinglright" unicode="&#x203a;" horiz-adv-x="526" 
d="M221 162h-158l234 317l-234 301h158l240 -301z" />
    <glyph glyph-name="fi" unicode="&#xf001;" horiz-adv-x="975" 
d="M344 0h-190v764h-121v160h121v110q0 184 93 281.5t269 97.5q158 0 249.5 -87.5t92.5 -239.5l-186 -1q-6 78 -47 120t-109 42q-90 0 -131 -56.5t-41 -182.5v-84h123v-160h-123v-764zM674 0v924h184v-924h-184z" />
    <glyph glyph-name="fi" unicode="&#xfb01;" horiz-adv-x="975" 
d="M344 0h-190v764h-121v160h121v110q0 184 93 281.5t269 97.5q158 0 249.5 -87.5t92.5 -239.5l-186 -1q-6 78 -47 120t-109 42q-90 0 -131 -56.5t-41 -182.5v-84h123v-160h-123v-764zM674 0v924h184v-924h-184z" />
    <glyph glyph-name="fl" unicode="&#xf002;" horiz-adv-x="975" 
d="M674 0v1399h184v-1399h-184zM346 0h-190v764h-121v160h121v84q0 120 10 174t35 94q40 65 109.5 101t156.5 36q28 0 64 -5.5t85 -16.5v-162q-38 8 -66.5 12t-49.5 4q-84 0 -119 -46.5t-35 -162.5v-112h123v-160h-123v-764z" />
    <glyph glyph-name="fl" unicode="&#xfb02;" horiz-adv-x="975" 
d="M674 0v1399h184v-1399h-184zM346 0h-190v764h-121v160h121v84q0 120 10 174t35 94q40 65 109.5 101t156.5 36q28 0 64 -5.5t85 -16.5v-162q-38 8 -66.5 12t-49.5 4q-84 0 -119 -46.5t-35 -162.5v-112h123v-160h-123v-764z" />
    <glyph glyph-name="daggerdbl" unicode="&#x2021;" 
d="M455 858l-385 -41v203l385 -39l-41 418h204l-40 -418l385 39v-203l-385 41l40 -252l-40 -250l385 41v-204l-385 40l40 -417h-204l41 417l-385 -40v204l385 -41l-41 250z" />
    <glyph glyph-name="periodcentered" unicode="&#xb7;" horiz-adv-x="516" 
d="M139 707q0 50 35 85t86 35t86 -35t35 -85q0 -51 -35 -86t-86 -35t-86 35t-35 86z" />
    <glyph glyph-name="quotesinglbase" unicode="&#x201a;" horiz-adv-x="483" 
d="M205 -20q-45 22 -66.5 53t-21.5 71q0 51 32.5 85t79.5 34q61 0 99.5 -52.5t38.5 -137.5q0 -108 -62.5 -186.5t-177.5 -116.5l-2 37q40 33 60 79.5t20 106.5v27z" />
    <glyph glyph-name="quotedblbase" unicode="&#x201e;" horiz-adv-x="881" 
d="M600 -20q-44 22 -66 53t-22 71q0 51 33.5 85t81.5 34q60 0 97.5 -52t37.5 -138q0 -108 -62.5 -186.5t-177.5 -116.5l-2 37q40 33 60 79.5t20 106.5v27zM205 -20q-45 22 -66.5 53t-21.5 71q0 51 32.5 85t79.5 34q61 0 99.5 -52.5t38.5 -137.5q0 -108 -62.5 -186.5
t-177.5 -116.5l-2 37q40 33 60 79.5t20 106.5v27z" />
    <glyph glyph-name="perthousand" unicode="&#x2030;" horiz-adv-x="2896" 
d="M2189 391q0 -98 67.5 -165.5t166.5 -67.5q97 0 165 67.5t68 165.5t-68 167t-165 69q-98 0 -166 -68.5t-68 -167.5zM2005 391q0 175 121.5 296.5t296.5 121.5q174 0 296 -121.5t122 -296.5q0 -173 -122 -294.5t-296 -121.5q-175 0 -296.5 121t-121.5 295zM1253 391
q0 -98 68.5 -165.5t167.5 -67.5q97 0 165 67.5t68 165.5t-68 167t-165 69q-98 0 -167 -69t-69 -167zM1071 391q0 175 121.5 296.5t296.5 121.5q174 0 295 -121.5t121 -296.5q0 -173 -121.5 -294.5t-294.5 -121.5q-175 0 -296.5 121t-121.5 295zM426 -25l944 1448h168
l-948 -1448h-164zM240 1006q0 -99 67.5 -167.5t165.5 -68.5q97 0 165.5 68.5t68.5 167.5q0 97 -68.5 165t-165.5 68q-98 0 -165.5 -67.5t-67.5 -165.5zM57 1004q0 175 120.5 296t295.5 121q174 0 296 -121.5t122 -295.5t-122 -295t-296 -121t-295 120.5t-121 295.5z" />
    <glyph glyph-name="Acircumflex" unicode="&#xc2;" horiz-adv-x="1276" 
d="M416 592h436l-221 504zM-45 0l606 1399h146l614 -1399h-207l-180 412h-596l-178 -412h-205zM352 1534l197 348h178l197 -348h-107l-178 241l-180 -241h-107z" />
    <glyph glyph-name="Ecircumflex" unicode="&#xca;" horiz-adv-x="1114" 
d="M150 0v1399h841v-178h-643v-424h625v-181h-625v-436h664v-180h-862zM282 1534l197 348h178l197 -348h-107l-178 241l-180 -241h-107z" />
    <glyph glyph-name="Aacute" unicode="&#xc1;" horiz-adv-x="1276" 
d="M416 592h436l-221 504zM-45 0l606 1399h146l614 -1399h-207l-180 412h-596l-178 -412h-205zM502 1534l209 348h178l-281 -348h-106z" />
    <glyph glyph-name="Edieresis" unicode="&#xcb;" horiz-adv-x="1114" 
d="M150 0v1399h841v-178h-643v-424h625v-181h-625v-436h664v-180h-862zM661 1687q0 41 29.5 71t68.5 30q40 0 70.5 -30.5t30.5 -70.5q0 -42 -29 -71t-72 -29q-41 0 -69.5 29t-28.5 71zM280 1687q0 41 29.5 71t69.5 30q39 0 69.5 -30.5t30.5 -70.5q0 -42 -29 -71t-71 -29
t-70.5 29t-28.5 71z" />
    <glyph glyph-name="Egrave" unicode="&#xc8;" horiz-adv-x="1114" 
d="M150 0v1399h841v-178h-643v-424h625v-181h-625v-436h664v-180h-862zM706 1534h-106l-281 348h178z" />
    <glyph glyph-name="Iacute" unicode="&#xcd;" horiz-adv-x="512" 
d="M156 0v1399h200v-1399h-200zM119 1534l209 348h178l-281 -348h-106z" />
    <glyph glyph-name="Icircumflex" unicode="&#xce;" horiz-adv-x="512" 
d="M156 0v1399h200v-1399h-200zM-31 1534l197 348h178l197 -348h-107l-178 241l-180 -241h-107z" />
    <glyph glyph-name="Idieresis" unicode="&#xcf;" horiz-adv-x="512" 
d="M156 0v1399h200v-1399h-200zM348 1687q0 41 29.5 71t68.5 30q40 0 70.5 -30.5t30.5 -70.5q0 -42 -29 -71t-72 -29q-41 0 -69.5 29t-28.5 71zM-33 1687q0 41 29.5 71t69.5 30q39 0 69.5 -30.5t30.5 -70.5q0 -42 -29 -71t-71 -29t-70.5 29t-28.5 71z" />
    <glyph glyph-name="Igrave" unicode="&#xcc;" horiz-adv-x="512" 
d="M156 0v1399h200v-1399h-200zM393 1534h-106l-281 348h178z" />
    <glyph glyph-name="Oacute" unicode="&#xd3;" horiz-adv-x="1640" 
d="M287 698q0 -107 40 -204t115 -172q73 -75 171.5 -115.5t205.5 -40.5q110 0 206.5 39.5t172.5 116.5q75 75 115.5 172t40.5 204t-40 202.5t-118 174.5q-75 77 -172 117.5t-205 40.5q-104 0 -201.5 -41t-175.5 -117q-75 -73 -115 -171t-40 -206zM74 705q0 140 57 272
t162 233q107 103 242 157t284 54q152 0 288.5 -54.5t240.5 -156.5q109 -106 164 -236t55 -282q0 -143 -56.5 -274.5t-160.5 -231.5q-109 -104 -243.5 -157.5t-287.5 -53.5q-149 0 -285.5 55t-240.5 156q-108 105 -163.5 237t-55.5 282zM684 1534l209 348h178l-281 -348h-106
z" />
    <glyph glyph-name="Ocircumflex" unicode="&#xd4;" horiz-adv-x="1640" 
d="M287 698q0 -107 40 -204t115 -172q73 -75 171.5 -115.5t205.5 -40.5q110 0 206.5 39.5t172.5 116.5q75 75 115.5 172t40.5 204t-40 202.5t-118 174.5q-75 77 -172 117.5t-205 40.5q-104 0 -201.5 -41t-175.5 -117q-75 -73 -115 -171t-40 -206zM74 705q0 140 57 272
t162 233q107 103 242 157t284 54q152 0 288.5 -54.5t240.5 -156.5q109 -106 164 -236t55 -282q0 -143 -56.5 -274.5t-160.5 -231.5q-109 -104 -243.5 -157.5t-287.5 -53.5q-149 0 -285.5 55t-240.5 156q-108 105 -163.5 237t-55.5 282zM534 1534l197 348h178l197 -348h-107
l-178 241l-180 -241h-107z" />
    <glyph glyph-name="apple" unicode="&#xf000;" horiz-adv-x="1618" 
d="M836 1216q-1 6 -1.5 14t-0.5 23q0 124 95 229.5t236 131.5q1 -10 1.5 -23t0.5 -39q0 -131 -103.5 -234.5t-203.5 -103.5h-8q-3 0 -7.5 1t-8.5 1zM1505 403q-114 -247 -205 -342.5t-204 -95.5q-50 0 -131.5 33t-122.5 33q-45 0 -131 -33t-127 -33q-64 0 -128.5 44
t-129.5 132q-102 140 -157.5 295.5t-55.5 300.5q0 219 125 356.5t323 137.5q68 0 155 -34t124 -34q34 0 121.5 35t152.5 35q110 0 198 -40t161 -124q-102 -65 -151.5 -145.5t-49.5 -182.5q0 -113 60 -200t173 -138z" />
    <glyph glyph-name="Ograve" unicode="&#xd2;" horiz-adv-x="1640" 
d="M287 698q0 -107 40 -204t115 -172q73 -75 171.5 -115.5t205.5 -40.5q110 0 206.5 39.5t172.5 116.5q75 75 115.5 172t40.5 204t-40 202.5t-118 174.5q-75 77 -172 117.5t-205 40.5q-104 0 -201.5 -41t-175.5 -117q-75 -73 -115 -171t-40 -206zM74 705q0 140 57 272
t162 233q107 103 242 157t284 54q152 0 288.5 -54.5t240.5 -156.5q109 -106 164 -236t55 -282q0 -143 -56.5 -274.5t-160.5 -231.5q-109 -104 -243.5 -157.5t-287.5 -53.5q-149 0 -285.5 55t-240.5 156q-108 105 -163.5 237t-55.5 282zM958 1534h-106l-281 348h178z" />
    <glyph glyph-name="Uacute" unicode="&#xda;" horiz-adv-x="1489" 
d="M141 1399h199v-803q0 -134 14.5 -190t48.5 -97q62 -73 147 -109t193 -36q182 0 293 94t111 248v893h199v-899q0 -234 -167 -379.5t-436 -145.5q-159 0 -287 56.5t-216 165.5q-54 65 -76.5 145t-22.5 246v811zM608 1534l209 348h178l-281 -348h-106z" />
    <glyph glyph-name="Ucircumflex" unicode="&#xdb;" horiz-adv-x="1489" 
d="M141 1399h199v-803q0 -134 14.5 -190t48.5 -97q62 -73 147 -109t193 -36q182 0 293 94t111 248v893h199v-899q0 -234 -167 -379.5t-436 -145.5q-159 0 -287 56.5t-216 165.5q-54 65 -76.5 145t-22.5 246v811zM458 1534l197 348h178l197 -348h-107l-178 241l-180 -241
h-107z" />
    <glyph glyph-name="Ugrave" unicode="&#xd9;" horiz-adv-x="1489" 
d="M141 1399h199v-803q0 -134 14.5 -190t48.5 -97q62 -73 147 -109t193 -36q182 0 293 94t111 248v893h199v-899q0 -234 -167 -379.5t-436 -145.5q-159 0 -287 56.5t-216 165.5q-54 65 -76.5 145t-22.5 246v811zM882 1534h-106l-281 348h178z" />
    <glyph glyph-name="dotlessi" unicode="&#x131;" horiz-adv-x="432" 
d="M123 0v924h184v-924h-184z" />
    <glyph glyph-name="circumflex" unicode="&#x2c6;" horiz-adv-x="1024" 
d="M225 1055l197 348h178l197 -348h-107l-178 241l-180 -241h-107z" />
    <glyph glyph-name="tilde" unicode="&#x2dc;" horiz-adv-x="1024" 
d="M803 1323q-24 -93 -75.5 -143t-123.5 -50q-17 1 -32 3t-34 8l-79 26q-12 4 -25.5 6.5t-27.5 2.5q-35 0 -58.5 -15.5t-38.5 -48.5h-88q22 91 72.5 138.5t126.5 47.5q17 0 32 -2t27 -6l79 -29q15 -4 31.5 -7t28.5 -3q36 0 60 18.5t37 53.5h88z" />
    <glyph glyph-name="macron" unicode="&#xaf;" horiz-adv-x="1024" 
d="M254 1149v125h516v-125h-516z" />
    <glyph glyph-name="breve" unicode="&#x2d8;" horiz-adv-x="1024" 
d="M230 1364h89q7 -76 52.5 -110.5t140.5 -34.5t140.5 34.5t52.5 110.5h90q-11 -141 -79 -206.5t-204 -65.5t-204.5 66t-77.5 206z" />
    <glyph glyph-name="dotaccent" unicode="&#x2d9;" horiz-adv-x="1024" 
d="M403 1208q0 45 33 78t76 33q45 0 78 -33t33 -78t-32.5 -76.5t-78.5 -31.5t-77.5 31t-31.5 77z" />
    <glyph glyph-name="ring" unicode="&#x2da;" horiz-adv-x="1024" 
d="M371 1282q0 -60 40.5 -101.5t100.5 -41.5t101.5 41.5t41.5 101.5t-41.5 101.5t-101.5 41.5q-61 0 -101 -41t-40 -102zM264 1284q0 104 71.5 175t176.5 71t176.5 -71t71.5 -175t-72 -176t-176 -72t-176 72t-72 176z" />
    <glyph glyph-name="cedilla" unicode="&#xb8;" horiz-adv-x="1024" 
d="M262 -424v88q79 -18 141.5 -27.5t106.5 -9.5q60 0 90.5 21.5t30.5 62.5q0 52 -33 75.5t-106 23.5q-21 0 -31 -0.5t-21 -1.5v192h72v-106h23q111 0 169 -45t58 -132q0 -89 -64 -135.5t-186 -46.5q-47 0 -108 10t-142 31z" />
    <glyph glyph-name="hungarumlaut" unicode="&#x2dd;" horiz-adv-x="1024" 
d="M580 1055l168 348h155l-239 -348h-84zM322 1055l147 348h158l-221 -348h-84z" />
    <glyph glyph-name="ogonek" unicode="&#x2db;" horiz-adv-x="1024" 
d="M602 0q-70 -64 -103.5 -118.5t-33.5 -104.5q0 -44 22.5 -63t75.5 -19h80v-129h-80q-113 0 -167 40t-54 124q0 65 41 125t147 145h72z" />
    <glyph glyph-name="caron" unicode="&#x2c7;" horiz-adv-x="1024" 
d="M225 1403h107l180 -244l178 244h107l-197 -348h-178z" />
    <glyph glyph-name="Lslash" unicode="&#x141;" horiz-adv-x="1049" 
d="M170 0v535l-170 -117v184l170 117v680h199v-576l327 221v-184l-327 -221v-459h665v-180h-864z" />
    <glyph glyph-name="lslash" unicode="&#x142;" horiz-adv-x="461" 
d="M137 0v592l-139 -98v145l139 98v662h185v-572l141 99v-146l-141 -98v-682h-185z" />
    <glyph glyph-name="Scaron" unicode="&#x160;" horiz-adv-x="944" 
d="M78 109v264q95 -109 181.5 -157t184.5 -48q104 0 164 48.5t60 131.5q0 68 -40.5 119.5t-193.5 148.5q-237 153 -297.5 237t-60.5 200q0 163 115.5 267.5t297.5 104.5q81 0 159.5 -23.5t158.5 -72.5v-227q-92 74 -170 107.5t-156 33.5q-94 0 -153.5 -46.5t-59.5 -119.5
q0 -104 247 -258l30 -18q201 -125 263 -220.5t62 -236.5q0 -160 -116 -264.5t-297 -104.5q-113 0 -204 32t-175 102zM186 1882h107l180 -244l178 244h107l-197 -348h-178z" />
    <glyph glyph-name="scaron" unicode="&#x161;" horiz-adv-x="770" 
d="M57 63v197q83 -55 160 -84t141 -29q71 0 111.5 26.5t40.5 72.5q0 58 -151 133q-44 22 -68 35q-129 66 -177 127.5t-48 150.5q0 116 83 184t228 68q78 0 150 -18.5t141 -57.5v-180q-85 47 -155.5 69.5t-133.5 22.5q-58 0 -89.5 -20t-31.5 -58q0 -70 193 -165l17 -8
q151 -76 197 -133.5t46 -145.5q0 -122 -91.5 -195t-242.5 -73q-87 0 -165.5 20t-154.5 61zM98 1403h107l180 -244l178 244h107l-197 -348h-178z" />
    <glyph glyph-name="Zcaron" unicode="&#x17d;" horiz-adv-x="1305" 
d="M14 0l920 1223h-854v176h1200v-23l-903 -1204h903v-172h-1266zM366 1882h107l180 -244l178 244h107l-197 -348h-178z" />
    <glyph glyph-name="zcaron" unicode="&#x17e;" horiz-adv-x="903" 
d="M18 0v25l517 729h-496v170h817v-21l-506 -729h514v-174h-846zM166 1403h107l180 -244l178 244h107l-197 -348h-178z" />
    <glyph glyph-name="brokenbar" unicode="&#xa6;" horiz-adv-x="1024" 
d="M588 408v-758h-150v758h150zM588 1432v-758h-150v758h150z" />
    <glyph glyph-name="Eth" unicode="&#xd0;" horiz-adv-x="1532" 
d="M678 1208h-316v-426h365v-159h-365v-433h316q259 0 407 136t148 372q0 237 -148 373.5t-407 136.5zM678 1399q155 0 267 -29t204 -92q142 -96 219.5 -246.5t77.5 -331.5q0 -179 -78.5 -331t-220.5 -248q-91 -63 -203 -92t-266 -29h-514v623h-164v159h164v617h514z" />
    <glyph glyph-name="eth" unicode="&#xf0;" horiz-adv-x="1096" 
d="M250 440q0 -118 86.5 -201t210.5 -83t210.5 83t86.5 201t-87 201.5t-210 83.5t-210 -84t-87 -201zM854 764q-14 95 -48.5 179t-88.5 157l-316 -92l-39 112l267 78q-39 37 -79 70.5t-81 62.5l111 90q61 -31 118 -73.5t111 -96.5l231 64l45 -111l-194 -55
q82 -123 122 -263.5t40 -305.5q0 -279 -134.5 -436.5t-369.5 -157.5q-207 0 -349.5 132.5t-142.5 323.5t143 324t349 133q87 0 164.5 -34.5t140.5 -100.5z" />
    <glyph glyph-name="Yacute" unicode="&#xdd;" horiz-adv-x="1194" 
d="M485 0v700l-540 699h237l408 -531l418 531h241l-561 -709v-690h-203zM461 1534l209 348h178l-281 -348h-106z" />
    <glyph glyph-name="yacute" unicode="&#xfd;" horiz-adv-x="909" 
d="M360 182l-389 742h205l285 -541l266 541h201l-686 -1389h-201zM318 1055l209 348h178l-281 -348h-106z" />
    <glyph glyph-name="Thorn" unicode="&#xde;" horiz-adv-x="1110" 
d="M348 489h217q146 0 211.5 52.5t65.5 167.5q0 114 -66 166.5t-211 52.5h-217v-439zM150 0v1399h198v-291h238q219 0 342 -106t123 -293q0 -188 -123 -293t-342 -105h-238v-311h-198z" />
    <glyph glyph-name="thorn" unicode="&#xfe;" horiz-adv-x="1059" 
d="M307 721v-518q45 -33 91.5 -48.5t99.5 -15.5q141 0 222 86.5t81 237.5q0 150 -81 235.5t-222 85.5q-53 0 -99.5 -15t-91.5 -48zM121 -465v1864h186v-527q52 37 110 54.5t128 17.5q200 0 326 -134t126 -347t-126 -347t-326 -134q-72 0 -129.5 16.5t-108.5 52.5v-516h-186z
" />
    <glyph glyph-name="minus" unicode="&#x2212;" horiz-adv-x="1706" 
d="M1452 682v-141h-1198v141h1198z" />
    <glyph glyph-name="multiply" unicode="&#xd7;" horiz-adv-x="1706" 
d="M860 709l469 469l98 -99l-469 -469l469 -469l-98 -96l-469 467l-469 -467l-98 96l469 469l-469 469l98 99z" />
    <glyph glyph-name="onesuperior" unicode="&#xb9;" horiz-adv-x="682" 
d="M274 559v840h132v-840h-132z" />
    <glyph glyph-name="twosuperior" unicode="&#xb2;" horiz-adv-x="682" 
d="M45 559q67 89 157 193t105 124q66 86 97.5 151.5t31.5 117.5q0 69 -43.5 111t-116.5 42q-48 0 -99 -25.5t-107 -78.5v143q56 39 112 57.5t113 18.5q121 0 196.5 -70t75.5 -184q0 -94 -61.5 -200t-220.5 -279h348v-121h-588z" />
    <glyph glyph-name="threesuperior" unicode="&#xb3;" horiz-adv-x="682" 
d="M90 594v127q52 -25 102.5 -38t96.5 -13q69 0 110 36t41 97q0 65 -49 99.5t-147 39.5v107q88 0 138 35.5t50 97.5q0 54 -47 88.5t-123 34.5q-28 0 -61 -8t-95 -31v108q51 20 94 29.5t85 9.5q125 0 200.5 -60.5t75.5 -160.5q0 -58 -28 -105t-82 -79q63 -28 97 -80t34 -121
q0 -116 -82.5 -189t-214.5 -73q-50 0 -97 12t-98 37z" />
    <glyph glyph-name="onequarter" unicode="&#xbc;" horiz-adv-x="1653" 
d="M1386 0v262h-376v47l444 488h53v-443h99v-92h-99v-262h-121zM1386 354l5 236l-213 -236h208zM461 -25h-152l873 1446h151zM262 614v783h125v-783h-125z" />
    <glyph glyph-name="onehalf" unicode="&#xbd;" horiz-adv-x="1653" 
d="M1044 0q69 90 157 188t95 107q61 78 91 140.5t30 111.5q0 65 -41.5 104t-109.5 39q-46 0 -95 -24t-102 -72v133q54 35 106.5 52.5t106.5 17.5q118 0 190 -65.5t72 -172.5q0 -87 -59 -185.5t-213 -260.5h334v-113h-562zM461 -25h-152l873 1446h151zM262 614v783h125v-783
h-125z" />
    <glyph glyph-name="threequarters" unicode="&#xbe;" horiz-adv-x="1653" 
d="M1386 0v262h-376v47l444 488h53v-443h99v-92h-99v-262h-121zM1386 354l5 236l-213 -236h208zM461 -25h-152l873 1446h151zM86 647v119q53 -25 99.5 -37t88.5 -12q68 0 107 33.5t39 91.5q0 60 -46.5 92.5t-140.5 38.5v98q82 0 130.5 33.5t48.5 89.5q0 51 -44.5 83
t-117.5 32q-28 0 -62 -8t-86 -27v100q44 19 86 28t84 9q120 0 191.5 -56.5t71.5 -150.5q0 -54 -26.5 -98t-78.5 -74q60 -24 92.5 -73t32.5 -113q0 -109 -78.5 -177.5t-206.5 -68.5q-46 0 -91 11.5t-93 35.5z" />
    <glyph glyph-name="franc" unicode="&#x20a3;" horiz-adv-x="1798" 
d="M150 0v1399h796v-178h-598v-414h580v-180h-580v-627h-198zM1149 0v924h184v-201q77 121 138.5 169t133.5 48q50 0 101.5 -22t109.5 -68l-100 -164q-45 39 -86 56.5t-86 17.5q-75 0 -131 -63t-80 -175v-522h-184z" />
    <glyph glyph-name="Gbreve" unicode="&#x11e;" horiz-adv-x="1450" 
d="M1341 686v-592q-138 -60 -261.5 -89.5t-235.5 -29.5q-126 0 -237 31t-204 92q-156 102 -242.5 260.5t-86.5 346.5q0 141 57 273.5t162 231.5q111 107 250 159t311 52q117 0 234.5 -28t240.5 -84v-217q-133 72 -250 106.5t-227 34.5q-245 0 -405 -152.5t-160 -382.5
q0 -227 158 -379.5t397 -152.5q72 0 144 15.5t149 47.5v271h-263v186h469zM443 1843h89q7 -76 52.5 -110.5t140.5 -34.5t140.5 34.5t52.5 110.5h90q-11 -141 -79 -206.5t-204 -65.5t-204.5 66t-77.5 206z" />
    <glyph glyph-name="gbreve" unicode="&#x11f;" horiz-adv-x="915" 
d="M172 -172q0 -68 68 -102.5t200 -34.5q129 0 202 34t73 93q0 65 -82.5 98t-247.5 33q-94 0 -153.5 -34.5t-59.5 -86.5zM281 295q-104 32 -158.5 106t-54.5 183q0 168 116 254t344 86h367v-150h-156q38 -41 56 -86.5t18 -101.5q0 -116 -70.5 -198t-189.5 -103
q-26 -5 -70 -12q-149 -23 -149 -76t213 -95l82 -16q134 -28 203 -94t69 -168q0 -141 -117.5 -215t-341.5 -74q-219 0 -334.5 71.5t-115.5 207.5q0 97 67.5 160t198.5 87q-53 24 -77.5 51.5t-24.5 61.5q0 36 30 65t95 56zM442 768q-85 0 -138.5 -49.5t-53.5 -126.5
q0 -81 51 -126.5t141 -45.5q91 0 144 46t53 126q0 77 -55.5 126.5t-141.5 49.5zM177 1364h89q7 -76 52.5 -110.5t140.5 -34.5t140.5 34.5t52.5 110.5h90q-11 -141 -79 -206.5t-204 -65.5t-204.5 66t-77.5 206z" />
    <glyph glyph-name="Idotaccent" unicode="&#x130;" horiz-adv-x="512" 
d="M156 0v1399h200v-1399h-200zM147 1687q0 45 33 78t76 33q45 0 78 -33t33 -78t-32.5 -76.5t-78.5 -31.5t-77.5 31t-31.5 77z" />
    <glyph glyph-name="Scedilla" unicode="&#x15e;" horiz-adv-x="944" 
d="M78 109v264q95 -109 181.5 -157t184.5 -48q104 0 164 48.5t60 131.5q0 68 -40.5 119.5t-193.5 148.5q-237 153 -297.5 237t-60.5 200q0 163 115.5 267.5t297.5 104.5q81 0 159.5 -23.5t158.5 -72.5v-227q-92 74 -170 107.5t-156 33.5q-94 0 -153.5 -46.5t-59.5 -119.5
q0 -104 247 -258l30 -18q201 -125 263 -220.5t62 -236.5q0 -160 -116 -264.5t-297 -104.5q-113 0 -204 32t-175 102zM223 -424v88q79 -18 141.5 -27.5t106.5 -9.5q60 0 90.5 21.5t30.5 62.5q0 52 -33 75.5t-106 23.5q-21 0 -31 -0.5t-21 -1.5v192h72v-106h23q111 0 169 -45
t58 -132q0 -89 -64 -135.5t-186 -46.5q-47 0 -108 10t-142 31z" />
    <glyph glyph-name="scedilla" unicode="&#x15f;" horiz-adv-x="770" 
d="M57 63v197q83 -55 160 -84t141 -29q71 0 111.5 26.5t40.5 72.5q0 58 -151 133q-44 22 -68 35q-129 66 -177 127.5t-48 150.5q0 116 83 184t228 68q78 0 150 -18.5t141 -57.5v-180q-85 47 -155.5 69.5t-133.5 22.5q-58 0 -89.5 -20t-31.5 -58q0 -70 193 -165l17 -8
q151 -76 197 -133.5t46 -145.5q0 -122 -91.5 -195t-242.5 -73q-87 0 -165.5 20t-154.5 61zM135 -424v88q79 -18 141.5 -27.5t106.5 -9.5q60 0 90.5 21.5t30.5 62.5q0 52 -33 75.5t-106 23.5q-21 0 -31 -0.5t-21 -1.5v192h72v-106h23q111 0 169 -45t58 -132q0 -89 -64 -135.5
t-186 -46.5q-47 0 -108 10t-142 31z" />
    <glyph glyph-name="Cacute" unicode="&#x106;" horiz-adv-x="1421" 
d="M1341 332v-226q-123 -64 -250.5 -97.5t-252.5 -33.5q-120 0 -229 31.5t-206 93.5q-156 102 -242.5 260.5t-86.5 344.5q0 141 57 273.5t162 231.5q112 106 251 158.5t308 52.5q118 0 234 -27t243 -85v-217q-133 72 -250 106.5t-227 34.5q-245 0 -405 -152.5t-160 -382.5
q0 -227 157.5 -379.5t395.5 -152.5q122 0 247 41t254 125zM676 1534l209 348h178l-281 -348h-106z" />
    <glyph glyph-name="cacute" unicode="&#x107;" horiz-adv-x="901" 
d="M840 219v-188q-70 -25 -136 -37t-131 -12q-226 0 -371 135.5t-145 345.5q0 205 145 343t363 138q67 0 132 -14t128 -43v-197q-64 39 -126.5 57.5t-127.5 18.5q-142 0 -231.5 -85t-89.5 -218q0 -136 91 -221.5t239 -85.5q68 0 132.5 15.5t127.5 47.5zM357 1055l209 348
h178l-281 -348h-106z" />
    <glyph glyph-name="Ccaron" unicode="&#x10c;" horiz-adv-x="1421" 
d="M1341 332v-226q-123 -64 -250.5 -97.5t-252.5 -33.5q-120 0 -229 31.5t-206 93.5q-156 102 -242.5 260.5t-86.5 344.5q0 141 57 273.5t162 231.5q112 106 251 158.5t308 52.5q118 0 234 -27t243 -85v-217q-133 72 -250 106.5t-227 34.5q-245 0 -405 -152.5t-160 -382.5
q0 -227 157.5 -379.5t395.5 -152.5q122 0 247 41t254 125zM526 1882h107l180 -244l178 244h107l-197 -348h-178z" />
    <glyph glyph-name="ccaron" unicode="&#x10d;" horiz-adv-x="901" 
d="M840 219v-188q-70 -25 -136 -37t-131 -12q-226 0 -371 135.5t-145 345.5q0 205 145 343t363 138q67 0 132 -14t128 -43v-197q-64 39 -126.5 57.5t-127.5 18.5q-142 0 -231.5 -85t-89.5 -218q0 -136 91 -221.5t239 -85.5q68 0 132.5 15.5t127.5 47.5zM207 1403h107
l180 -244l178 244h107l-197 -348h-178z" />
    <glyph glyph-name="dcroat" unicode="&#x111;" horiz-adv-x="1065" 
d="M754 205v520q-47 33 -92.5 48t-100.5 15q-141 0 -222 -86t-81 -237q0 -150 81.5 -237t221.5 -87q55 0 100.5 15t92.5 49zM754 51q-54 -36 -112 -52.5t-128 -16.5q-199 0 -326 134t-127 347t127 347t326 134q68 0 126.5 -17.5t113.5 -54.5v234h-297v129h297v164h184v-164
h152v-129h-152v-1106h-184v51z" />
    <glyph glyph-name="sfthyphen" unicode="&#xad;" horiz-adv-x="692" 
d="M84 379v166h524v-166h-524z" />
    <glyph glyph-name="periodcentered" unicode="&#x2219;" horiz-adv-x="516" 
d="M139 707q0 50 35 85t86 35t86 -35t35 -85q0 -51 -35 -86t-86 -35t-86 35t-35 86z" />
    <glyph glyph-name="Euro" 
d="M987 74q-59 -46 -151.5 -72.5t-184.5 -26.5q-182 0 -311 145.5t-164 391.5h-166l37 111h117q-1 12 -1.5 27.5t-0.5 47.5q0 16 1 45t1 43h-154l37 111h131q38 240 175 382t331 142q86 0 164 -20t131 -55v-218q-54 49 -135 79t-162 30q-119 0 -198 -88t-107 -252h538
l-36 -111h-514q-2 -15 -2.5 -33t-0.5 -55q0 -32 0.5 -47t2.5 -28h460l-37 -111h-413q27 -172 102 -259t197 -87q91 0 166.5 32.5t146.5 100.5v-225z" />
    <glyph glyph-name="Euro" unicode="&#x20ac;" 
d="M987 74q-59 -46 -151.5 -72.5t-184.5 -26.5q-182 0 -311 145.5t-164 391.5h-166l37 111h117q-1 12 -1.5 27.5t-0.5 47.5q0 16 1 45t1 43h-154l37 111h131q38 240 175 382t331 142q86 0 164 -20t131 -55v-218q-54 49 -135 79t-162 30q-119 0 -198 -88t-107 -252h538
l-36 -111h-514q-2 -15 -2.5 -33t-0.5 -55q0 -32 0.5 -47t2.5 -28h460l-37 -111h-413q27 -172 102 -259t197 -87q91 0 166.5 32.5t146.5 100.5v-225z" />
    </font>
</defs>
</svg>
